<?xml version="1.0" standalone="no"?>
<!DOCTYPE svg PUBLIC "-//W3C//DTD SVG 1.1//EN" "http://www.w3.org/Graphics/SVG/1.1/DTD/svg11.dtd" >
<svg xmlns="http://www.w3.org/2000/svg" xmlns:xlink="http://www.w3.org/1999/xlink" version="1.1">
<metadata></metadata>
<defs>
<font id="sansa_prosemibold" horiz-adv-x="1280" >
<font-face units-per-em="2048" ascent="1638" descent="-410" />
<missing-glyph horiz-adv-x="544" />
<glyph horiz-adv-x="0" />
<glyph horiz-adv-x="682" />
<glyph unicode=" "  horiz-adv-x="544" />
<glyph unicode="&#x09;" horiz-adv-x="544" />
<glyph unicode="&#xa0;" horiz-adv-x="544" />
<glyph unicode="!" horiz-adv-x="610" d="M178 0v256h254v-256h-254zM178 1536h254l-24 -1063h-205z" />
<glyph unicode="&#x22;" horiz-adv-x="980" d="M164 1536h254l-25 -416h-207zM565 1536h252l-20 -416h-209z" />
<glyph unicode="#" horiz-adv-x="1363" d="M63 326v213h256v458h-256v213h256v326h218v-326h290v326h220v-326h256v-213h-256v-458h256v-213h-256v-326h-220v326h-290v-326h-218v326h-256zM537 539h290v458h-290v-458z" />
<glyph unicode="$" d="M133 51v219h19q72 -22 191 -42.5t206 -20.5h72q276 0 276 225q0 97 -51 144t-152 73l-223 60q-65 17 -119 46t-103.5 76.5t-77.5 123t-28 171.5q0 180 119 289.5t318 130.5v230h202v-226q80 -5 173.5 -21.5t140.5 -35.5v-217h-17q-58 19 -166.5 36t-179.5 17h-59 q-262 0 -262 -203q0 -47 14 -81.5t42.5 -56.5t58 -35.5t75.5 -26.5l217 -60q77 -22 135 -52.5t108 -80t76.5 -125.5t26.5 -176q0 -197 -120 -310t-334 -134v-244h-203v240q-92 6 -204.5 26t-170.5 41z" />
<glyph unicode="%" horiz-adv-x="2004" d="M137 1100q0 234 89.5 340t277.5 106q186 0 275 -106.5t89 -339.5q0 -230 -89.5 -337.5t-274.5 -107.5q-187 0 -277 107.5t-90 337.5zM338 1100q0 -161 36 -226t130 -65q93 0 127.5 63.5t34.5 227.5q0 168 -34.5 230.5t-127.5 62.5q-95 0 -130.5 -63t-35.5 -230zM557 0v29 l754 1507h135v-29l-750 -1507h-139zM1145 436q0 234 88 340.5t276 106.5q186 0 275.5 -107t89.5 -340q0 -229 -90 -336.5t-275 -107.5q-187 0 -275.5 106.5t-88.5 337.5zM1343 436q0 -162 36 -227.5t130 -65.5q93 0 127.5 63.5t34.5 229.5t-34.5 228.5t-127.5 62.5 q-95 0 -130.5 -62.5t-35.5 -228.5z" />
<glyph unicode="&#x26;" horiz-adv-x="1386" d="M137 438q0 124 64.5 226t179.5 145q-87 43 -140 129t-53 199q0 194 135 304.5t363 110.5h53q82 0 187.5 -17t163.5 -42v-217h-17q-65 20 -162.5 36.5t-171.5 16.5h-53q-113 0 -173 -49.5t-60 -163.5q0 -92 54 -149.5t142 -57.5h641v-215h-137v-633q-76 -30 -218.5 -53.5 t-264.5 -23.5q-533 0 -533 454zM399 442q0 -122 68.5 -178.5t202.5 -56.5q55 0 122.5 7.5t98.5 16.5v463h-242q-118 0 -184 -68t-66 -184z" />
<glyph unicode="'" horiz-adv-x="581" d="M164 1536h254l-25 -416h-207z" />
<glyph unicode="(" horiz-adv-x="798" d="M96 608v64q0 284 97 511t272 353h205v-33q-93 -81 -157.5 -179.5t-99 -207.5t-49 -215.5t-14.5 -228.5v-64q0 -122 14.5 -228.5t49 -215.5t99 -207.5t157.5 -179.5v-33h-205q-175 126 -272 353t-97 511z" />
<glyph unicode=")" horiz-adv-x="798" d="M129 -223q93 81 157.5 179.5t99 207.5t49 215.5t14.5 228.5v64q0 122 -14.5 228.5t-49 215.5t-99 207.5t-157.5 179.5v33h205q174 -126 271 -353.5t97 -510.5v-64q0 -283 -97 -510.5t-271 -353.5h-205v33z" />
<glyph unicode="*" horiz-adv-x="1024" d="M100 973l240 139l-240 139l86 146l240 -144v283h170v-283l240 144l86 -146l-242 -139l242 -139l-86 -146l-240 142v-281h-170v281l-240 -142z" />
<glyph unicode="+" d="M193 645v213h339v342h216v-342h339v-213h-339v-342h-216v342h-339z" />
<glyph unicode="," horiz-adv-x="610" d="M59 -256l140 512h262v-109l-225 -403h-177z" />
<glyph unicode="-" horiz-adv-x="831" d="M100 645v213h631v-213h-631z" />
<glyph unicode="." horiz-adv-x="610" d="M174 0v256h262v-256h-262z" />
<glyph unicode="/" horiz-adv-x="1097" d="M63 -223l746 1759h225v-33l-743 -1759h-228v33z" />
<glyph unicode="0" d="M100 768q0 412 131.5 598t409.5 186q277 0 409 -186.5t132 -597.5q0 -408 -132.5 -596t-408.5 -188q-278 0 -409.5 187.5t-131.5 596.5zM362 768q0 -312 60.5 -436.5t218.5 -124.5t217.5 121.5t59.5 439.5q0 216 -25.5 335.5t-85 172.5t-166.5 53q-81 0 -133.5 -27.5 t-85.5 -94.5t-46.5 -171.5t-13.5 -267.5z" />
<glyph unicode="1" d="M178 1096v231l512 209h172v-1536h-264v1257l-403 -161h-17z" />
<glyph unicode="2" d="M147 0v215q0 314 297 492l191 112q49 30 80 53.5t63 58t47 77t15 94.5q0 122 -63 167.5t-197 45.5h-394v221h437q235 0 357 -108t122 -320q0 -67 -15.5 -124t-42 -101.5t-71 -87t-91.5 -76t-116 -74.5l-176 -104q-94 -57 -133 -129t-39 -168v-23h708v-221h-979z" />
<glyph unicode="3" d="M178 0v221h422q131 0 209 62.5t78 185.5q0 122 -72 173.5t-207 51.5h-270v203h344q172 99 172 233q0 103 -62 141t-192 38h-416v227h439q114 0 201 -18t155 -58t103.5 -110t35.5 -168q0 -100 -47 -182.5t-153 -153.5q118 -49 174.5 -137.5t56.5 -239.5q0 -221 -149 -345 t-386 -124h-436z" />
<glyph unicode="4" d="M96 309v170q129 233 215.5 507.5t126.5 549.5h277q-41 -262 -134.5 -522.5t-218.5 -485.5h406v379h262v-379h168v-219h-168v-309h-262v309h-672z" />
<glyph unicode="5" d="M164 0v221h430q283 0 283 279q0 72 -19.5 120t-60 74.5t-92 37.5t-125.5 11h-383v793h878v-221h-633v-348h176q259 0 391 -119t132 -348q0 -231 -143.5 -365.5t-403.5 -134.5h-430z" />
<glyph unicode="6" d="M131 485v463q0 268 171 428t474 160h252v-221h-274q-166 0 -263.5 -87.5t-97.5 -260.5v-62q156 76 293 76q463 0 463 -496q0 -229 -132.5 -365t-381.5 -136q-242 0 -373 130.5t-131 370.5zM393 485q0 -278 248 -278q120 0 183 66t63 212q0 147 -54.5 213t-175.5 66 q-132 0 -264 -59v-220z" />
<glyph unicode="7" d="M129 1319v217h1024v-166q-87 -101 -152.5 -189.5t-130.5 -202t-106.5 -226t-67.5 -251.5t-26 -288v-213h-264v193q0 176 39.5 345.5t108 311.5t148 256.5t172.5 212.5h-745z" />
<glyph unicode="8" d="M117 422q0 111 46.5 185.5t135.5 144.5l68 51q-220 116 -220 350q0 85 25.5 153.5t69 113.5t104 75.5t126.5 43.5t140 13h56q108 0 191 -20.5t145.5 -66t95.5 -124t33 -188.5q0 -93 -43 -166.5t-119 -142.5l-49 -43q120 -59 180.5 -147.5t60.5 -231.5q0 -105 -39.5 -189 t-107.5 -138t-157 -82.5t-191 -28.5h-56q-235 0 -365 106t-130 332zM379 428q0 -63 17.5 -106.5t52 -66.5t75.5 -32.5t97 -9.5h38q114 0 178 49t64 166q0 89 -45 141t-133 88l-164 68l-63 -57q-37 -33 -58.5 -58.5t-40 -74t-18.5 -107.5zM403 1145q0 -78 39 -122t121 -77 l162 -65l43 41q55 55 82 104t27 119q0 102 -55 145t-154 43h-56q-99 0 -154 -43t-55 -145z" />
<glyph unicode="9" d="M129 1042q0 229 136 365.5t382 136.5q239 0 370.5 -131.5t131.5 -370.5v-454q0 -268 -171 -428t-474 -160h-252v221h274q165 0 262 87.5t97 258.5v58q-148 -74 -293 -74q-235 0 -349 126.5t-114 364.5zM393 1042q0 -146 54 -211t176 -65q134 0 262 57v219q0 281 -244 281 q-123 0 -185.5 -66.5t-62.5 -214.5z" />
<glyph unicode=":" horiz-adv-x="610" d="M174 0v256h262v-256h-262zM174 864v256h262v-256h-262z" />
<glyph unicode=";" horiz-adv-x="610" d="M37 -256l137 512h262v-109l-223 -403h-176zM174 864v256h262v-256h-262z" />
<glyph unicode="&#x3c;" d="M193 651v201l878 457h16v-234l-647 -323l647 -322v-233h-16z" />
<glyph unicode="=" d="M193 403v211h894v-211h-894zM193 872v209h894v-209h-894z" />
<glyph unicode="&#x3e;" d="M193 197v233l647 322l-647 323v234h16l878 -457v-201l-878 -454h-16z" />
<glyph unicode="?" horiz-adv-x="966" d="M129 1319v217h352q213 0 316.5 -87t103.5 -265q0 -162 -182 -379l-201 -238v-131h-254v139l240 283q74 89 108.5 160t34.5 139q0 162 -239 162h-279zM264 0v256h254v-256h-254z" />
<glyph unicode="@" horiz-adv-x="1896" d="M117 672q0 207 68 375t186.5 277.5t276.5 168.5t339 59q238 0 416.5 -83.5t279.5 -250t101 -397.5q0 -221 -142 -361.5t-370 -140.5h-324q-164 0 -259 92t-95 261q0 174 106 279.5t267 105.5h280v-588h39q122 0 200.5 94.5t78.5 257.5q0 266 -148.5 405.5t-429.5 139.5 q-303 0 -479 -179.5t-176 -514.5q0 -327 174 -511t467 -184q220 0 366 41h17v-178q-68 -23 -176.5 -36t-206.5 -13q-143 0 -270.5 34.5t-235 106t-185.5 174.5t-121.5 247.5t-43.5 318.5zM793 672q0 -96 40.5 -149.5t114.5 -53.5h103v438h-84q-78 0 -126 -65t-48 -170z" />
<glyph unicode="A" horiz-adv-x="1445" d="M53 0v16q54 223 176 639q67 229 172 504t158 377h334q53 -102 158 -377t172 -504q122 -416 176 -639v-16h-279q-69 286 -88 360h-626q-58 -222 -91 -360h-262zM469 582h506q-2 8 -7 24.5t-7 24.5q-131 477 -238 696q-108 -222 -242 -696q-9 -28 -12 -49z" />
<glyph unicode="B" horiz-adv-x="1355" d="M178 0v1536h570q454 0 454 -395q0 -119 -54.5 -209t-148.5 -137q236 -84 236 -346q0 -225 -122.5 -337t-354.5 -112h-580zM442 221h293q120 0 175 56t55 176q0 115 -58.5 166t-179.5 51h-285v-449zM442 879h285q97 0 151 68t54 167q0 104 -51 152.5t-154 48.5h-285v-436z " />
<glyph unicode="C" horiz-adv-x="1339" d="M98 678v180q0 221 94.5 378.5t262 236.5t393.5 79q104 0 212 -20t177 -47v-387h-242v211q-64 20 -180 20q-207 0 -326.5 -116t-119.5 -349v-186q0 -222 113 -346.5t317 -124.5h96q78 0 172 20t154 43h16v-215q-46 -22 -151 -46.5t-191 -24.5h-96q-340 0 -520.5 185.5 t-180.5 508.5z" />
<glyph unicode="D" horiz-adv-x="1497" d="M178 0v1536h508q352 0 529.5 -167t177.5 -478v-213q0 -153 -40 -275t-121.5 -213t-215 -140.5t-311.5 -49.5h-527zM442 221h263q417 0 417 471v187q0 436 -436 436h-244v-1094z" />
<glyph unicode="E" horiz-adv-x="1239" d="M178 416v1120h922v-221h-658v-406h592v-223h-592v-254q0 -110 45 -160.5t142 -50.5h483v-221h-532q-199 0 -300.5 105t-101.5 311z" />
<glyph unicode="F" horiz-adv-x="1134" d="M178 0v1081q0 227 120 341t351 114h404v-221h-404q-108 0 -157.5 -57t-49.5 -177v-196h578v-226h-578v-659h-264z" />
<glyph unicode="G" horiz-adv-x="1466" d="M109 678v190q0 136 39 248.5t108.5 192.5t166 135t211.5 81.5t245 26.5q116 0 235 -21.5t201 -53.5v-217h-17q-87 29 -205.5 49t-220.5 20q-110 0 -198 -26.5t-155.5 -80.5t-104.5 -144t-37 -210v-190q0 -221 121.5 -346t332.5 -125h72q98 0 170 20v340h-276v224h518 v-723q-65 -29 -185 -56.5t-227 -27.5h-72q-341 0 -531.5 187t-190.5 507z" />
<glyph unicode="H" horiz-adv-x="1544" d="M176 0v1536h264v-621h664v621h264v-1536h-264v694h-664v-694h-264z" />
<glyph unicode="I" horiz-adv-x="618" d="M178 0v1536h264v-1536h-264z" />
<glyph unicode="J" horiz-adv-x="956" d="M82 0v221h207q227 0 227 252v842h-371v221h633v-1063q0 -223 -126 -348t-351 -125h-219z" />
<glyph unicode="K" horiz-adv-x="1409" d="M178 0v1536h264v-629h90l531 629h289v-16l-611 -709l637 -795v-16h-305l-551 692h-80v-692h-264z" />
<glyph unicode="L" horiz-adv-x="1099" d="M178 416v1120h264v-1104q0 -110 45 -160.5t142 -50.5h424v-221h-473q-198 0 -300 107.5t-102 308.5z" />
<glyph unicode="M" horiz-adv-x="1783" d="M178 0v1536h244l467 -670l473 670h244v-1536h-263v1108l-417 -569h-95l-389 561v-1100h-264z" />
<glyph unicode="N" horiz-adv-x="1552" d="M176 0v1536h211l725 -1047v1047h264v-1536h-215l-721 1047v-1047h-264z" />
<glyph unicode="O" horiz-adv-x="1531" d="M98 721v100q0 348 171 539.5t497 191.5q328 0 498 -188.5t170 -542.5v-100q0 -349 -171 -543t-497 -194q-327 0 -497.5 191t-170.5 546zM369 721q0 -259 94.5 -386.5t302.5 -127.5t302.5 127.5t94.5 386.5v100q0 257 -94.5 382.5t-302.5 125.5t-302.5 -125.5 t-94.5 -382.5v-100z" />
<glyph unicode="P" horiz-adv-x="1304" d="M178 0v1536h524q253 0 384 -130t131 -392q0 -269 -145 -410t-402 -141h-228v-463h-264zM442 684h213q85 0 142 21t89.5 65t46 102t13.5 142q0 166 -62 233.5t-220 67.5h-222v-631z" />
<glyph unicode="Q" horiz-adv-x="1531" d="M98 721v100q0 348 171 539.5t497 191.5q328 0 498 -188.5t170 -542.5v-100q0 -321 -147 -512.5t-425 -218.5v-58q0 -68 30 -95t109 -27q128 0 228 34h14v-184q-132 -45 -256 -45q-148 0 -231.5 78t-83.5 219v76q-281 28 -427.5 217t-146.5 516zM369 721 q0 -259 94.5 -386.5t302.5 -127.5t302.5 127.5t94.5 386.5v100q0 257 -94.5 382.5t-302.5 125.5t-302.5 -125.5t-94.5 -382.5v-100z" />
<glyph unicode="R" horiz-adv-x="1374" d="M178 0v1536h524q259 0 387 -113t128 -370q0 -118 -37 -207.5t-93 -142.5t-137 -93q116 -103 226 -296t137 -298v-16h-283q-15 61 -65 163t-122.5 209.5t-135.5 155.5h-265v-528h-264zM442 748h205q159 0 229 74.5t70 224.5q0 155 -63 211.5t-219 56.5h-222v-567z" />
<glyph unicode="S" horiz-adv-x="1249" d="M113 51v219h16q75 -22 192.5 -42.5t204.5 -20.5h72q279 0 279 225q0 97 -52.5 145t-152.5 72l-221 60q-65 17 -119.5 46t-103.5 76.5t-77 123t-28 171.5q0 201 144.5 313.5t379.5 112.5h64q80 0 193 -18t169 -41v-217h-14q-60 19 -168 36t-180 17h-60q-262 0 -262 -203 q0 -47 14 -81.5t43 -56.5t58.5 -35.5t75.5 -26.5l217 -60q78 -22 136 -53t108.5 -80.5t77 -125t26.5 -175.5q0 -218 -146.5 -333t-400.5 -115h-72q-91 0 -218.5 21.5t-194.5 45.5z" />
<glyph unicode="T" horiz-adv-x="1230" d="M33 1315v221h1165v-221h-453v-1315h-262v1315h-450z" />
<glyph unicode="U" horiz-adv-x="1513" d="M168 541v995h264v-997q0 -332 326 -332q323 0 323 332v997h265v-995q0 -136 -43.5 -242.5t-122.5 -175t-186 -104t-236 -35.5q-279 0 -434.5 142.5t-155.5 414.5z" />
<glyph unicode="V" horiz-adv-x="1417" d="M55 1520v16h277q67 -362 174 -727t211 -590q106 231 216.5 596.5t176.5 720.5h252v-16q-85 -448 -230 -881t-253 -639h-338q-110 207 -256 640t-230 880z" />
<glyph unicode="W" horiz-adv-x="2158" d="M55 1520v16h277q52 -373 134.5 -725.5t180.5 -591.5q98 220 185.5 581t140.5 736h229q51 -366 135.5 -714.5t188.5 -602.5q93 218 179.5 583t137.5 734h266v-16q-64 -446 -180.5 -868.5t-222.5 -651.5h-340q-66 143 -144 391t-135 518q-59 -272 -136 -522.5t-140 -386.5 h-350q-111 230 -228.5 658.5t-177.5 861.5z" />
<glyph unicode="X" horiz-adv-x="1343" d="M37 0v16l481 760l-473 744v16h295l330 -520l329 520h267v-16l-457 -721l498 -783v-16h-295l-357 557l-354 -557h-264z" />
<glyph unicode="Y" horiz-adv-x="1320" d="M37 1520v16h272l361 -705l368 705h254v-16l-501 -908v-612h-263v604z" />
<glyph unicode="Z" horiz-adv-x="1269" d="M88 0v135q187 238 424.5 603.5t325.5 576.5h-715v221h1055v-123q-88 -211 -321 -589t-404 -603h735v-221h-1100z" />
<glyph unicode="[" horiz-adv-x="845" d="M193 -256v1792h526v-178h-273v-1436h273v-178h-526z" />
<glyph unicode="\" horiz-adv-x="1097" d="M63 1503v33h228l743 -1759v-33h-225z" />
<glyph unicode="]" horiz-adv-x="845" d="M129 -78h270v1436h-270v178h524v-1792h-524v178z" />
<glyph unicode="^" d="M86 223v17l457 880h194l457 -880v-17h-233l-320 658l-319 -658h-236z" />
<glyph unicode="_" d="M63 0h1154v-213h-1154v213z" />
<glyph unicode="`" horiz-adv-x="477" d="M0 1569v30h279l198 -286v-33h-162z" />
<glyph unicode="a" horiz-adv-x="1282" d="M117 362v193q0 169 82 299.5t215.5 198t294.5 67.5h395v-1120h-254v186l-80 -69q-73 -65 -147.5 -99t-167.5 -34q-156 0 -247 96t-91 282zM371 387q0 -100 39.5 -142t113.5 -42q105 0 262 137l64 53v514h-127q-162 0 -257 -92.5t-95 -259.5v-168z" />
<glyph unicode="b" horiz-adv-x="1282" d="M178 0v1536h254v-602l80 70q75 65 148.5 99t166.5 34q156 0 247 -96t91 -283v-195q0 -168 -82 -298t-215.5 -197.5t-294.5 -67.5h-395zM432 213h127q162 0 257 92.5t95 257.5v168q0 102 -39.5 144.5t-113.5 42.5q-104 0 -262 -138l-64 -55v-512z" />
<glyph unicode="c" horiz-adv-x="1073" d="M102 444v211q0 112 42 204.5t113 152.5t162 92.5t191 32.5q97 0 189.5 -22t158.5 -58v-328h-217v164q-48 25 -131 25q-112 0 -183 -68t-71 -201v-174q0 -134 70 -203t199 -69q82 0 166 19t143 46h16v-213q-58 -28 -150.5 -49.5t-176.5 -21.5q-238 0 -379.5 115 t-141.5 345z" />
<glyph unicode="d" horiz-adv-x="1282" d="M117 362v193q0 169 82 299.5t215.5 198t294.5 67.5h141v416h254v-1536h-254v186l-80 -69q-73 -65 -147.5 -99t-167.5 -34q-156 0 -247 96t-91 282zM371 387q0 -100 39.5 -142t113.5 -42q105 0 262 137l64 53v514h-127q-162 0 -257 -92.5t-95 -259.5v-168z" />
<glyph unicode="e" horiz-adv-x="1165" d="M102 436v219q0 114 40 206t110 152t165 92t206 32q96 0 173 -18.5t137.5 -58t93 -106.5t32.5 -157q0 -159 -102 -241.5t-279 -82.5h-322v-41q0 -121 75.5 -175t201.5 -54q164 0 332 61h16v-213q-71 -26 -176 -46.5t-187 -20.5q-115 0 -207 25.5t-162.5 78.5t-108.5 141 t-38 207zM356 643h283q96 0 137 35.5t41 109.5q0 76 -50 106t-144 30q-267 0 -267 -265v-16z" />
<glyph unicode="f" horiz-adv-x="724" d="M43 907v213h174v41q0 181 103 278t280 97h172v-199h-123q-94 0 -136 -42.5t-42 -139.5v-35h268v-213h-268v-907h-254v907h-174z" />
<glyph unicode="g" horiz-adv-x="1282" d="M117 457v98q0 173 77.5 303t206.5 196t289 66h414v-970q0 -269 -155.5 -402t-438.5 -133h-277v213h222q210 0 302.5 71t92.5 253v30l-43 -20q-14 -6 -52.5 -24.5t-61.5 -28t-60 -22t-75 -18.5t-79 -6q-165 0 -263.5 101t-98.5 293zM371 481q0 -103 43.5 -150.5 t128.5 -47.5q121 0 266 69l41 21v534h-145q-160 0 -247 -91.5t-87 -260.5v-74z" />
<glyph unicode="h" horiz-adv-x="1323" d="M178 0v1536h254v-608l66 59q82 74 161 112t179 38q151 0 232 -91.5t81 -281.5v-764h-254v725q0 103 -36.5 148t-108.5 45q-32 0 -67 -12.5t-73.5 -40t-58 -43t-57.5 -48.5l-64 -53v-721h-254z" />
<glyph unicode="i" horiz-adv-x="641" d="M33 907v213h432v-1120h-254v907h-178zM211 1307v229h254v-229h-254z" />
<glyph unicode="j" horiz-adv-x="649" d="M-76 -172h66q130 0 182.5 63.5t52.5 204.5v811h-178v213h432v-1016q0 -245 -120 -367t-345 -122h-90v213zM225 1307v229h254v-229h-254z" />
<glyph unicode="k" horiz-adv-x="1196" d="M176 0v1536h254v-829h98l349 413h278v-16l-420 -488l430 -600v-16h-286l-351 496h-98v-496h-254z" />
<glyph unicode="l" horiz-adv-x="624" d="M14 1323v213h432v-1536h-253v1323h-179z" />
<glyph unicode="m" horiz-adv-x="2025" d="M178 0v1120h254v-192l62 59q76 74 155.5 112t181.5 38q232 0 293 -217h11l71 67q79 74 157 112t179 38q311 0 311 -373v-764h-254v725q0 104 -35.5 148.5t-107.5 44.5q-42 0 -94 -26.5t-82.5 -51t-77.5 -66.5l-59 -53v-721h-252v725q0 104 -37 148.5t-111 44.5 q-32 0 -66 -12.5t-70.5 -38.5t-58 -44t-56.5 -49l-60 -53v-721h-254z" />
<glyph unicode="n" horiz-adv-x="1323" d="M178 0v1120h254v-192l66 59q82 74 161 112t179 38q151 0 232 -91.5t81 -281.5v-764h-254v725q0 103 -36.5 148t-108.5 45q-32 0 -67 -12.5t-73.5 -40t-58 -43t-57.5 -48.5l-64 -53v-721h-254z" />
<glyph unicode="o" horiz-adv-x="1249" d="M98 569q0 273 135 420.5t392 147.5q265 0 395.5 -145.5t130.5 -422.5q0 -295 -130.5 -440t-395.5 -145q-266 0 -396.5 145t-130.5 440zM352 569q0 -181 62.5 -273.5t210.5 -92.5q147 0 209.5 92.5t62.5 273.5q0 179 -61.5 264t-210.5 85t-211 -85.5t-62 -263.5z" />
<glyph unicode="p" horiz-adv-x="1282" d="M178 -385v1505h254v-186l80 70q75 65 148.5 99t166.5 34q156 0 247 -96t91 -283v-195q0 -168 -82 -298t-215.5 -197.5t-294.5 -67.5h-141v-385h-254zM432 213h127q162 0 257 92.5t95 257.5v168q0 102 -39.5 144.5t-113.5 42.5q-104 0 -262 -138l-64 -55v-512z" />
<glyph unicode="q" horiz-adv-x="1282" d="M117 362v193q0 169 82 299.5t215.5 198t294.5 67.5h395v-1505h-254v571l-80 -69q-73 -65 -147.5 -99t-167.5 -34q-156 0 -247 96t-91 282zM371 387q0 -100 39.5 -142t113.5 -42q105 0 262 137l64 53v514h-127q-162 0 -257 -92.5t-95 -259.5v-168z" />
<glyph unicode="r" horiz-adv-x="851" d="M176 0v1120h254v-205q60 94 142 152.5t182 58.5h80v-237h-101q-49 0 -89 -10.5t-77.5 -36.5t-59 -45t-61.5 -60l-8.5 -8.5l-7.5 -7.5v-721h-254z" />
<glyph unicode="s" horiz-adv-x="1077" d="M117 801q0 108 63 184.5t172 114t254 37.5q138 0 303 -33v-213h-14q-195 31 -295 31q-64 0 -111.5 -10.5t-79.5 -37.5t-32 -69q0 -29 9 -48.5t30.5 -31.5t39 -17.5t50.5 -13.5l151 -35q69 -15 120.5 -37t98 -58.5t71 -95t24.5 -136.5q0 -77 -27.5 -138t-74 -100t-112 -64 t-136 -35.5t-152.5 -10.5q-200 0 -348 41v213h14q173 -39 334 -39q49 0 90 6.5t76.5 20.5t55.5 40.5t20 63.5q0 53 -37.5 81t-102.5 44l-172 39q-282 67 -282 307z" />
<glyph unicode="t" horiz-adv-x="845" d="M43 907v213h174v271h254v-271h307v-213h-307v-452q0 -139 49.5 -190.5t177.5 -51.5h113v-213h-172q-201 0 -311.5 99.5t-110.5 303.5v504h-174z" />
<glyph unicode="u" horiz-adv-x="1323" d="M174 356v764h252v-727q0 -102 36 -146t109 -44q32 0 65.5 12t74 40.5t57.5 42t59 48.5l66 55v719h252v-1120h-252v193l-68 -62q-82 -74 -161 -110.5t-181 -36.5q-309 0 -309 372z" />
<glyph unicode="v" horiz-adv-x="1122" d="M90 831v289h254v-289q0 -206 64.5 -383t154.5 -274q90 94 151.5 271.5t61.5 385.5v289h254v-289q0 -135 -36 -276t-89.5 -249t-109 -187.5t-101.5 -118.5h-282q-45 38 -98.5 118t-104.5 188t-85 248.5t-34 276.5z" />
<glyph unicode="w" horiz-adv-x="1658" d="M90 831v289h254v-289q0 -210 51.5 -387t128.5 -270q76 93 127 270t51 387v289h254v-289q0 -210 51.5 -387t127.5 -270q77 93 128.5 270t51.5 387v289h252v-289q0 -136 -29.5 -275t-75 -246t-94.5 -187.5t-94 -122.5h-270q-40 41 -100 151t-79 189q-19 -78 -81.5 -187 t-104.5 -153h-266q-45 41 -93 122t-91.5 188t-71 245.5t-27.5 275.5z" />
<glyph unicode="x" horiz-adv-x="1052" d="M27 0v16l366 545l-350 543v16h260l229 -352l238 352h248v-16l-359 -531l365 -557v-16h-262l-242 369l-248 -369h-245z" />
<glyph unicode="y" horiz-adv-x="1316" d="M166 516v604h254v-579q0 -103 43 -149t129 -46q141 0 293 80v694h254v-950q0 -272 -157.5 -413.5t-436.5 -141.5h-271v213h213q209 0 303.5 81t94.5 267v55h-8q-60 -30 -99.5 -47.5t-113.5 -36t-144 -18.5q-162 0 -258 96.5t-96 290.5z" />
<glyph unicode="z" horiz-adv-x="1071" d="M90 0v170q154 154 320 361t264 376h-557v213h856v-170q-61 -145 -239 -381t-306 -356h559v-213h-897z" />
<glyph unicode="{" horiz-adv-x="1009" d="M129 557v164q162 10 226.5 65t64.5 166v232q0 190 98.5 271t325.5 81h102v-178h-98q-106 0 -141 -43.5t-35 -165.5v-205q0 -73 -20 -127.5t-58 -88.5t-82.5 -54t-103.5 -33q59 -13 103 -33.5t82.5 -55t58.5 -89t20 -127.5v-207q0 -121 35.5 -164t140.5 -43h98v-178h-145 q-202 0 -291.5 85t-89.5 267v230q0 111 -64.5 166t-226.5 65z" />
<glyph unicode="|" horiz-adv-x="638" d="M211 -385v2050h215v-2050h-215z" />
<glyph unicode="}" horiz-adv-x="1009" d="M63 -78h97q105 0 140.5 43t35.5 164v207q0 73 20.5 127.5t59 89t82.5 55t102 33.5q-58 13 -102.5 33t-82.5 54t-58.5 88.5t-20.5 127.5v205q0 122 -35 165.5t-141 43.5h-97v178h115q228 0 319 -94t91 -309v-181q0 -111 65 -166t228 -65v-164q-163 -10 -228 -65t-65 -166 v-181q0 -214 -91.5 -307.5t-318.5 -93.5h-115v178z" />
<glyph unicode="~" d="M193 510v205q32 59 96 101t143 42q48 0 110.5 -21t113 -46.5t107 -46.5t93.5 -21q81 0 129.5 32.5t85.5 102.5h16v-205q-32 -59 -96 -101t-143 -42q-48 0 -110.5 21t-113 46.5t-107 46.5t-93.5 21q-70 0 -121 -33.5t-94 -101.5h-16z" />
<glyph unicode="&#xa2;" d="M90 678v180q0 292 159 469.5t437 214.5v234h203v-224q174 -9 311 -59v-217h-16q-168 53 -381 53q-207 0 -325 -115.5t-118 -349.5v-186q0 -224 107 -347.5t309 -123.5h96q78 0 167 20t145 43h16v-215q-50 -21 -136 -44t-167 -27v-240h-203v244q-199 14 -336 104 t-202.5 238t-65.5 348z" />
<glyph unicode="&#xa3;" d="M123 0v221h100q65 51 96 137.5t31 180.5v147h-180v223h180v109q0 246 145.5 382t399.5 136h248v-221h-248q-141 0 -212 -75t-71 -222v-109h420v-223h-420v-147q0 -95 -30.5 -182t-96.5 -136h658v-221h-1020z" />
<glyph unicode="&#xa5;" d="M33 1520v16h272l346 -641l342 641h254v-16l-479 -838v-127h383v-221h-383v-334h-262v334h-379v221h379v127z" />
<glyph unicode="&#xa8;" horiz-adv-x="784" d="M0 1241v232h254v-232h-254zM530 1241v232h254v-232h-254z" />
<glyph unicode="&#xa9;" horiz-adv-x="1777" d="M96 784q0 220 105 392.5t286 266t404 93.5q222 0 401.5 -93.5t284 -266t104.5 -392.5t-104.5 -392.5t-284 -265.5t-401.5 -93q-223 0 -404 93t-286 265.5t-105 392.5zM248 784q0 -136 45.5 -252t127.5 -199t203 -130t267 -47q193 0 338.5 81t222 223t76.5 324t-76.5 324 t-222 222.5t-338.5 80.5q-146 0 -267 -47t-203 -129.5t-127.5 -198.5t-45.5 -252zM487 784q0 109 40 192t109 130.5t152.5 70.5t180.5 23q76 0 194 -33v-100q-126 31 -194 31q-135 0 -219 -79t-84 -235t85.5 -235.5t219.5 -79.5q91 0 192 33v-103q-105 -30 -192 -30 q-97 0 -181 22.5t-153.5 70t-109.5 130t-40 192.5z" />
<glyph unicode="&#xab;" horiz-adv-x="1200" d="M129 606v166l426 348h20v-219l-266 -213l266 -215v-217h-20zM641 606v166l426 348h20v-219l-266 -213l266 -215v-217h-20z" />
<glyph unicode="&#xad;" horiz-adv-x="831" d="M100 645v213h631v-213h-631z" />
<glyph unicode="&#xae;" horiz-adv-x="1777" d="M96 784q0 220 105 392.5t286 266t404 93.5q222 0 401.5 -93.5t284 -266t104.5 -392.5t-104.5 -392.5t-284 -265.5t-401.5 -93q-223 0 -404 93t-286 265.5t-105 392.5zM248 784q0 -136 45.5 -252t127.5 -199t203 -130t267 -47q193 0 338.5 81t222 223t76.5 324t-76.5 324 t-222 222.5t-338.5 80.5q-146 0 -267 -47t-203 -129.5t-127.5 -198.5t-45.5 -252zM575 369v831h287q340 0 340 -256q0 -84 -45.5 -146t-122.5 -85l191 -328v-16h-185l-157 282h-129v-282h-179zM754 758h98q74 0 123 47t49 139q0 77 -48.5 115.5t-123.5 38.5h-98v-340z" />
<glyph unicode="&#xb4;" horiz-adv-x="477" d="M0 1280v33l201 286h276v-30l-315 -289h-162z" />
<glyph unicode="&#xb8;" horiz-adv-x="462" d="M0 -260h193q110 0 110 70q0 64 -102 118v25h133q54 -25 91.5 -73t37.5 -95q0 -86 -63.5 -128t-161.5 -42h-238v125z" />
<glyph unicode="&#xbb;" horiz-adv-x="1200" d="M113 256v217l266 215l-266 213v219h18l428 -348v-166l-428 -350h-18zM625 256v217l266 215l-266 213v219h18l428 -348v-166l-428 -350h-18z" />
<glyph unicode="&#xc2;" horiz-adv-x="1445" d="M53 0v16q54 223 176 639q67 229 172 504t158 377h334q53 -102 158 -377t172 -504q122 -416 176 -639v-16h-279q-69 286 -88 360h-626q-58 -222 -91 -360h-262zM328 1696v33l270 305h250l270 -310v-28h-172l-225 217l-223 -217h-170zM469 582h506q-2 8 -7 24.5t-7 24.5 q-131 477 -238 696q-108 -222 -242 -696q-9 -28 -12 -49z" />
<glyph unicode="&#xc7;" horiz-adv-x="1339" d="M98 678v180q0 221 94.5 378.5t262 236.5t393.5 79q104 0 212 -20t177 -47v-387h-242v211q-64 20 -180 20q-207 0 -326.5 -116t-119.5 -349v-186q0 -222 113 -346.5t317 -124.5h96q78 0 172 20t154 43h16v-215q-46 -22 -151 -46.5t-191 -24.5h-96q-340 0 -520.5 185.5 t-180.5 508.5zM526 -260h193q110 0 110 70q0 65 -104 118v25h135q54 -25 90.5 -73t36.5 -95q0 -86 -62.5 -128t-160.5 -42h-238v125z" />
<glyph unicode="&#xce;" horiz-adv-x="618" d="M-86 1696v33l270 305h250l271 -310v-28h-173l-227 217l-221 -217h-170zM178 0v1536h264v-1536h-264z" />
<glyph unicode="&#xd6;" horiz-adv-x="1531" d="M98 721v100q0 348 171 539.5t497 191.5q328 0 498 -188.5t170 -542.5v-100q0 -349 -171 -543t-497 -194q-327 0 -497.5 191t-170.5 546zM369 721q0 -259 94.5 -386.5t302.5 -127.5t302.5 127.5t94.5 386.5v100q0 257 -94.5 382.5t-302.5 125.5t-302.5 -125.5 t-94.5 -382.5v-100zM375 1659v229h254v-229h-254zM903 1659v229h254v-229h-254z" />
<glyph unicode="&#xdb;" horiz-adv-x="1513" d="M168 541v995h264v-997q0 -332 326 -332q323 0 323 332v997h265v-995q0 -136 -43.5 -242.5t-122.5 -175t-186 -104t-236 -35.5q-279 0 -434.5 142.5t-155.5 414.5zM362 1696v33l271 305h250l268 -310v-28h-170l-227 217l-222 -217h-170z" />
<glyph unicode="&#xdc;" horiz-adv-x="1513" d="M168 541v995h264v-997q0 -332 326 -332q323 0 323 332v997h265v-995q0 -136 -43.5 -242.5t-122.5 -175t-186 -104t-236 -35.5q-279 0 -434.5 142.5t-155.5 414.5zM365 1659v229h253v-229h-253zM895 1659v229h254v-229h-254z" />
<glyph unicode="&#xe2;" horiz-adv-x="1282" d="M117 362v193q0 169 82 299.5t215.5 198t294.5 67.5h395v-1120h-254v186l-80 -69q-73 -65 -147.5 -99t-167.5 -34q-156 0 -247 96t-91 282zM262 1280v33l270 305h250l271 -309v-29h-172l-228 215l-221 -215h-170zM371 387q0 -100 39.5 -142t113.5 -42q105 0 262 137l64 53 v514h-127q-162 0 -257 -92.5t-95 -259.5v-168z" />
<glyph unicode="&#xe7;" horiz-adv-x="1073" d="M102 444v211q0 112 42 204.5t113 152.5t162 92.5t191 32.5q97 0 189.5 -22t158.5 -58v-328h-217v164q-48 25 -131 25q-112 0 -183 -68t-71 -201v-174q0 -134 70 -203t199 -69q82 0 166 19t143 46h16v-213q-58 -28 -150.5 -49.5t-176.5 -21.5q-238 0 -379.5 115 t-141.5 345zM330 -260h192q113 0 113 70q0 62 -105 118v25h134q54 -25 91.5 -73t37.5 -95q0 -86 -64 -128t-162 -42h-237v125z" />
<glyph unicode="&#xee;" horiz-adv-x="641" d="M-115 1280v33l271 305h250l270 -309v-29h-172l-225 215l-224 -215h-170zM33 907v213h432v-1120h-254v907h-178z" />
<glyph unicode="&#xf6;" horiz-adv-x="1249" d="M98 569q0 273 135 420.5t392 147.5q265 0 395.5 -145.5t130.5 -422.5q0 -295 -130.5 -440t-395.5 -145q-266 0 -396.5 145t-130.5 440zM231 1241v232h254v-232h-254zM352 569q0 -181 62.5 -273.5t210.5 -92.5q147 0 209.5 92.5t62.5 273.5q0 179 -61.5 264t-210.5 85 t-211 -85.5t-62 -263.5zM762 1241v232h254v-232h-254z" />
<glyph unicode="&#xfb;" horiz-adv-x="1323" d="M174 356v764h252v-727q0 -102 36 -146t109 -44q32 0 65.5 12t74 40.5t57.5 42t59 48.5l66 55v719h252v-1120h-252v193l-68 -62q-82 -74 -161 -110.5t-181 -36.5q-309 0 -309 372zM266 1280v33l271 305h249l271 -309v-29h-172l-228 215l-221 -215h-170z" />
<glyph unicode="&#xfc;" horiz-adv-x="1323" d="M174 356v764h252v-727q0 -102 36 -146t109 -44q32 0 65.5 12t74 40.5t57.5 42t59 48.5l66 55v719h252v-1120h-252v193l-68 -62q-82 -74 -161 -110.5t-181 -36.5q-309 0 -309 372zM270 1241v232h254v-232h-254zM801 1241v232h254v-232h-254z" />
<glyph unicode="&#x11e;" horiz-adv-x="1466" d="M109 678v190q0 136 39 248.5t108.5 192.5t166 135t211.5 81.5t245 26.5q116 0 235 -21.5t201 -53.5v-217h-17q-87 29 -205.5 49t-220.5 20q-110 0 -198 -26.5t-155.5 -80.5t-104.5 -144t-37 -210v-190q0 -221 121.5 -346t332.5 -125h72q98 0 170 20v340h-276v224h518 v-723q-65 -29 -185 -56.5t-227 -27.5h-72q-341 0 -531.5 187t-190.5 507zM453 2015h120q0 -77 65.5 -121.5t160.5 -44.5q92 0 157.5 45t65.5 121h121q0 -61 -21.5 -117.5t-62.5 -102t-108.5 -72.5t-151.5 -27q-86 0 -154 27t-109 72.5t-62 101.5t-21 118z" />
<glyph unicode="&#x11f;" horiz-adv-x="1282" d="M117 457v98q0 173 77.5 303t206.5 196t289 66h414v-970q0 -269 -155.5 -402t-438.5 -133h-277v213h222q210 0 302.5 71t92.5 253v30l-43 -20q-14 -6 -52.5 -24.5t-61.5 -28t-60 -22t-75 -18.5t-79 -6q-165 0 -263.5 101t-98.5 293zM319 1599h123q0 -76 65 -120.5 t159 -44.5t159.5 44.5t65.5 120.5h119q0 -61 -21.5 -117.5t-62.5 -102t-108.5 -72.5t-151.5 -27q-85 0 -153 27t-109.5 72.5t-63 101.5t-21.5 118zM371 481q0 -103 43.5 -150.5t128.5 -47.5q121 0 266 69l41 21v534h-145q-160 0 -247 -91.5t-87 -260.5v-74z" />
<glyph unicode="&#x130;" horiz-adv-x="618" d="M178 0v1536h264v-1536h-264zM182 1696v229h254v-229h-254z" />
<glyph unicode="&#x131;" horiz-adv-x="641" d="M33 907v213h432v-1120h-254v907h-178z" />
<glyph unicode="&#x15e;" horiz-adv-x="1249" d="M113 51v219h16q75 -22 192.5 -42.5t204.5 -20.5h72q279 0 279 225q0 97 -52.5 145t-152.5 72l-221 60q-65 17 -119.5 46t-103.5 76.5t-77 123t-28 171.5q0 201 144.5 313.5t379.5 112.5h64q80 0 193 -18t169 -41v-217h-14q-60 19 -168 36t-180 17h-60q-262 0 -262 -203 q0 -47 14 -81.5t43 -56.5t58.5 -35.5t75.5 -26.5l217 -60q78 -22 136 -53t108.5 -80.5t77 -125t26.5 -175.5q0 -218 -146.5 -333t-400.5 -115h-72q-91 0 -218.5 21.5t-194.5 45.5zM299 -260h190q113 0 113 70q0 65 -104 118v25h135q54 -25 90.5 -73t36.5 -95q0 -86 -63 -128 t-160 -42h-238v125z" />
<glyph unicode="&#x15f;" horiz-adv-x="1077" d="M117 801q0 108 63 184.5t172 114t254 37.5q138 0 303 -33v-213h-14q-195 31 -295 31q-64 0 -111.5 -10.5t-79.5 -37.5t-32 -69q0 -29 9 -48.5t30.5 -31.5t39 -17.5t50.5 -13.5l151 -35q69 -15 120.5 -37t98 -58.5t71 -95t24.5 -136.5q0 -77 -27.5 -138t-74 -100t-112 -64 t-136 -35.5t-152.5 -10.5q-200 0 -348 41v213h14q173 -39 334 -39q49 0 90 6.5t76.5 20.5t55.5 40.5t20 63.5q0 53 -37.5 81t-102.5 44l-172 39q-282 67 -282 307zM205 -260h190q113 0 113 70q0 64 -105 118v25h136q54 -25 90.5 -73t36.5 -95q0 -86 -63.5 -128t-160.5 -42 h-237v125z" />
<glyph unicode="&#x2c6;" horiz-adv-x="790" d="M0 1280v33l270 305h250l271 -309v-29h-173l-227 215l-221 -215h-170z" />
<glyph unicode="&#x2da;" horiz-adv-x="505" d="M0 1489q0 92 68 149.5t186 57.5t185 -56.5t67 -150.5t-67 -151.5t-185 -57.5q-119 0 -186.5 56t-67.5 153zM119 1489q0 -54 34 -91.5t101 -37.5t101 37.5t34 91.5q0 53 -34 90t-101 37t-101 -37t-34 -90z" />
<glyph unicode="&#x2dc;" horiz-adv-x="704" d="M0 1280v158q35 53 87 97t114 44q37 0 82 -22.5t79.5 -50t72 -50t61.5 -22.5q31 0 58.5 11.5t53.5 37t40.5 43.5t39.5 53h17v-149q-34 -55 -89.5 -102.5t-119.5 -47.5q-36 0 -80 23t-78.5 50.5t-73 50.5t-63.5 23q-31 0 -57 -11.5t-51.5 -38.5t-38 -43.5t-38.5 -53.5h-16z " />
<glyph unicode="&#x2000;" horiz-adv-x="1017" />
<glyph unicode="&#x2001;" horiz-adv-x="2034" />
<glyph unicode="&#x2002;" horiz-adv-x="1017" />
<glyph unicode="&#x2003;" horiz-adv-x="2034" />
<glyph unicode="&#x2004;" horiz-adv-x="678" />
<glyph unicode="&#x2005;" horiz-adv-x="508" />
<glyph unicode="&#x2006;" horiz-adv-x="339" />
<glyph unicode="&#x2007;" horiz-adv-x="339" />
<glyph unicode="&#x2008;" horiz-adv-x="254" />
<glyph unicode="&#x2009;" horiz-adv-x="406" />
<glyph unicode="&#x200a;" horiz-adv-x="113" />
<glyph unicode="&#x2010;" horiz-adv-x="831" d="M100 645v213h631v-213h-631z" />
<glyph unicode="&#x2011;" horiz-adv-x="831" d="M100 645v213h631v-213h-631z" />
<glyph unicode="&#x2012;" horiz-adv-x="831" d="M100 645v213h631v-213h-631z" />
<glyph unicode="&#x2013;" horiz-adv-x="1024" d="M63 645v213h898v-213h-898z" />
<glyph unicode="&#x2014;" horiz-adv-x="2048" d="M63 645v213h1922v-213h-1922z" />
<glyph unicode="&#x2018;" horiz-adv-x="581" d="M109 1024v109l221 403h178l-137 -512h-262z" />
<glyph unicode="&#x2019;" horiz-adv-x="581" d="M74 1024l139 512h260v-109l-223 -403h-176z" />
<glyph unicode="&#x201a;" horiz-adv-x="610" d="M59 -256l140 512h262v-109l-225 -403h-177z" />
<glyph unicode="&#x201c;" horiz-adv-x="1028" d="M109 1024v109l221 403h178l-137 -512h-262zM555 1024v109l223 403h176l-139 -512h-260z" />
<glyph unicode="&#x201d;" horiz-adv-x="1028" d="M74 1024l139 512h260v-109l-223 -403h-176zM522 1024l135 512h265v-109l-224 -403h-176z" />
<glyph unicode="&#x201e;" horiz-adv-x="1028" d="M59 -256l140 512h262v-109l-225 -403h-177zM508 -256l135 512h264v-109l-223 -403h-176z" />
<glyph unicode="&#x2026;" horiz-adv-x="1783" d="M174 0v256h262v-256h-262zM760 0v256h262v-256h-262zM1350 0v256h262v-256h-262z" />
<glyph unicode="&#x202f;" horiz-adv-x="406" />
<glyph unicode="&#x2039;" horiz-adv-x="688" d="M129 606v166l426 348h20v-219l-266 -213l266 -215v-217h-20z" />
<glyph unicode="&#x203a;" horiz-adv-x="688" d="M113 256v217l266 215l-266 213v219h18l428 -348v-166l-428 -350h-18z" />
<glyph unicode="&#x205f;" horiz-adv-x="508" />
<glyph unicode="&#x20ac;" d="M63 516v174h177v154h-177v174l177 2q0 159 81.5 282.5t211 186.5t280.5 63h49q82 0 171 -19.5t132 -43.5v-217h-14q-56 25 -135 40t-154 15h-49q-62 0 -115 -18t-96 -54t-67.5 -97t-24.5 -140h541v-174h-541v-154h541v-174l-541 -2q0 -100 45 -171.5t112 -103.5t146 -32 h66q144 0 272 63h14v-215q-145 -71 -286 -71h-66q-114 0 -214.5 32t-182 94.5t-129 167t-47.5 238.5h-177z" />
<glyph unicode="&#x2122;" horiz-adv-x="1644" d="M55 1391v145h580v-145h-201v-676h-178v676h-201zM737 715v821h158l229 -348l215 348h158v-821h-176v485l-170 -256h-70l-166 240v-469h-178z" />
<glyph unicode="&#x25fc;" horiz-adv-x="1116" d="M0 0v1116h1116v-1116h-1116z" />
</font>
</defs>
</svg>
