<?xml version="1.0" standalone="no"?>
<!DOCTYPE svg PUBLIC "-//W3C//DTD SVG 1.1//EN" "http://www.w3.org/Graphics/SVG/1.1/DTD/svg11.dtd" >
<svg xmlns="http://www.w3.org/2000/svg" xmlns:xlink="http://www.w3.org/1999/xlink" version="1.1">
<metadata></metadata>
<defs>
<font id="sansa_probold" horiz-adv-x="1280" >
<font-face units-per-em="2048" ascent="1638" descent="-410" />
<missing-glyph horiz-adv-x="544" />
<glyph horiz-adv-x="0" />
<glyph horiz-adv-x="682" />
<glyph unicode=" "  horiz-adv-x="544" />
<glyph unicode="&#x09;" horiz-adv-x="544" />
<glyph unicode="&#xa0;" horiz-adv-x="544" />
<glyph unicode="!" horiz-adv-x="671" d="M160 0v352h352v-352h-352zM160 1536h352l-25 -1024h-303z" />
<glyph unicode="&#x22;" horiz-adv-x="1071" d="M129 1536h350l-30 -416h-289zM592 1536h352l-33 -416h-286z" />
<glyph unicode="#" horiz-adv-x="1472" d="M63 289v286h256v386h-256v286h256v289h289v-289h256v289h287v-289h256v-286h-256v-386h256v-286h-256v-289h-287v289h-256v-289h-289v289h-256zM608 575h256v386h-256v-386z" />
<glyph unicode="$" d="M113 55v297h16q74 -23 197.5 -43t218.5 -20h80q223 0 223 168q0 35 -14 61.5t-40.5 45t-54.5 30t-67 22.5l-240 64q-145 37 -232 141.5t-87 290.5q0 103 35.5 183t100.5 131.5t148.5 81.5t186.5 40v228h256v-228q191 -15 297 -53v-295h-17q-59 17 -176 32t-184 15h-72 q-46 0 -81 -5.5t-65.5 -19.5t-46.5 -41.5t-16 -68.5q0 -61 38.5 -93.5t107.5 -49.5l239 -66q177 -47 265 -155t88 -291q0 -113 -35.5 -199.5t-101.5 -142t-154 -86.5t-199 -41v-244h-256v242q-205 18 -358 69z" />
<glyph unicode="%" horiz-adv-x="2111" d="M127 1100q0 245 93.5 345.5t295.5 100.5q199 0 292 -100.5t93 -345.5q0 -239 -94 -342t-291 -103q-200 0 -294.5 103t-94.5 342zM383 1100q0 -148 27 -197t106 -49q76 0 101.5 49t25.5 197q0 149 -25.5 197.5t-101.5 48.5q-79 0 -106 -48.5t-27 -197.5zM608 0v33 l727 1503h168v-33l-727 -1503h-168zM1212 436q0 245 94 346t296 101q132 0 215 -41t127.5 -140.5t44.5 -265.5q0 -238 -94.5 -341t-292.5 -103q-200 0 -295 102.5t-95 341.5zM1470 436q0 -148 26.5 -197t105.5 -49q76 0 102.5 49t26.5 197q0 149 -26.5 197.5t-102.5 48.5 q-79 0 -105.5 -48.5t-26.5 -197.5z" />
<glyph unicode="&#x26;" horiz-adv-x="1439" d="M129 449q0 121 71 222.5t185 137.5q-201 98 -201 328q0 107 45.5 188.5t124 130t177 72.5t212.5 24h41q78 0 194.5 -17t174.5 -40v-295h-16q-67 19 -171.5 33t-181.5 14h-41q-206 0 -206 -160q0 -77 44.5 -118t123.5 -41h638v-287h-126v-569q-88 -33 -236 -60.5 t-276 -27.5q-576 0 -576 465zM479 457q0 -168 226 -168q82 0 159 14v338h-159q-226 0 -226 -184z" />
<glyph unicode="'" horiz-adv-x="608" d="M129 1536h350l-30 -416h-289z" />
<glyph unicode="(" horiz-adv-x="897" d="M96 608v64q0 284 97 511t272 353h303v-33q-93 -81 -157.5 -179.5t-98.5 -207.5t-48.5 -215t-14.5 -229v-64q0 -123 14.5 -229t48.5 -215t98.5 -207.5t157.5 -179.5v-33h-303q-175 126 -272 353t-97 511z" />
<glyph unicode=")" horiz-adv-x="897" d="M129 -223q93 81 157.5 179.5t99 207.5t49 215.5t14.5 228.5v64q0 122 -14.5 228.5t-49 215.5t-99 207.5t-157.5 179.5v33h303q174 -127 271.5 -354t97.5 -510v-64q0 -283 -97.5 -510t-271.5 -354h-303v33z" />
<glyph unicode="*" horiz-adv-x="1024" d="M88 995l201 117l-201 117l113 190l198 -114v231h226v-231l198 114l113 -190l-203 -117l203 -117l-113 -190l-198 115v-232h-226v232l-198 -115z" />
<glyph unicode="+" d="M193 608v289h303v303h288v-303h303v-289h-303v-305h-288v305h-303z" />
<glyph unicode="," horiz-adv-x="671" d="M25 -256l159 608h353v-129l-265 -479h-247z" />
<glyph unicode="-" horiz-adv-x="831" d="M63 608v289h705v-289h-705z" />
<glyph unicode="." horiz-adv-x="671" d="M160 0v352h352v-352h-352z" />
<glyph unicode="/" horiz-adv-x="1191" d="M63 -223l746 1759h319v-33l-743 -1759h-322v33z" />
<glyph unicode="0" d="M63 768q0 220 35.5 372t110 242.5t179 130t253.5 39.5q148 0 252.5 -39.5t178.5 -130t109.5 -242.5t35.5 -372q0 -214 -35.5 -364.5t-109.5 -243t-179 -134.5t-252 -42q-197 0 -322 75.5t-190.5 249.5t-65.5 459zM416 768q0 -147 10 -237t37 -145.5t68.5 -76t109.5 -20.5 q90 0 136.5 41t66.5 142t20 296q0 196 -20 297t-66.5 141.5t-136.5 40.5q-91 0 -137.5 -40.5t-67 -141.5t-20.5 -297z" />
<glyph unicode="1" d="M160 1008v319l512 209h223v-1536h-350v1151l-369 -143h-16z" />
<glyph unicode="2" d="M113 0v240q0 157 62.5 262t223.5 219l209 143q28 19 49.5 36t50 46.5t44.5 65.5t16 75q0 83 -50 114.5t-173 31.5h-385v303h479q227 0 354 -114t127 -318q0 -40 -5.5 -75.5t-13 -64.5t-24 -58.5t-30 -50.5t-40.5 -47.5t-45 -43.5t-54 -43.5t-58 -42t-66 -45.5l-176 -121 q-62 -41 -95.5 -86.5t-33.5 -106.5v-16h672v-303h-1038z" />
<glyph unicode="3" d="M160 0v303h448q102 0 162.5 42.5t60.5 133.5q0 90 -58.5 126t-164.5 36h-289v256h332q150 88 150 199q0 79 -49 108t-144 29h-432v303h465q94 0 167.5 -9.5t140 -35t110 -66.5t69 -106t25.5 -152q0 -85 -50 -172.5t-145 -152.5q110 -40 168 -127.5t58 -235.5 q0 -222 -152 -350.5t-391 -128.5h-481z" />
<glyph unicode="4" d="M96 248v231q112 225 186.5 514.5t102.5 542.5h383q-72 -540 -319 -983h278v278h352v-278h138v-305h-138v-248h-352v248h-631z" />
<glyph unicode="5" d="M129 0v303h446q124 0 190 43t66 150q0 39 -9.5 68.5t-29.5 48.5t-43.5 31t-59 18t-67.5 8t-77 2h-385v864h960v-303h-624v-256h137q261 0 406 -118.5t145 -362.5q0 -129 -45 -225.5t-128 -155t-192 -87t-244 -28.5h-446z" />
<glyph unicode="6" d="M96 496v432q0 147 51 263t143.5 191t217.5 114.5t276 39.5h287v-303h-336q-123 0 -204.5 -69.5t-81.5 -186.5v-21q110 52 256 52q236 0 357.5 -134.5t121.5 -377.5q0 -241 -153.5 -376.5t-405.5 -135.5q-243 0 -386 137t-143 375zM449 496q0 -98 48.5 -152.5t143.5 -54.5 q190 0 190 207q0 109 -44 167t-146 58q-110 0 -192 -31v-194z" />
<glyph unicode="7" d="M127 1233v303h1024v-223q-83 -93 -146 -178.5t-122 -192.5t-97 -217t-61 -246t-23 -286v-193h-352v193q0 307 122.5 582.5t309.5 457.5h-655z" />
<glyph unicode="8" d="M80 432q0 97 48 179t128 141l57 43q-200 119 -200 350q0 104 42 184t114 127.5t160 71.5t187 24h48q118 0 208 -21.5t157.5 -68t102.5 -126.5t35 -191q0 -80 -42.5 -163t-100.5 -134l-43 -39q219 -121 219 -377q0 -105 -44 -191.5t-118.5 -141.5t-171 -85t-202.5 -30h-48 q-259 0 -397.5 106t-138.5 342zM432 449q0 -160 184 -160h48q86 0 135 41.5t49 118.5q0 45 -13.5 78t-44.5 56t-55 34.5t-71 29.5l-107 43l-61 -65q-64 -73 -64 -176zM449 1120q0 -35 9.5 -60t32.5 -42t43 -27t58 -24q5 -2 8.5 -3.5t7.5 -2.5l117 -48l43 48q63 63 63 159 q0 62 -48 94.5t-119 32.5h-48q-71 0 -119 -32.5t-48 -94.5z" />
<glyph unicode="9" d="M96 1024q0 241 153.5 376.5t405.5 135.5q243 0 386 -137t143 -375v-416q0 -147 -51 -263t-143 -191t-217.5 -114.5t-276.5 -39.5h-287v303h336q123 0 204.5 69.5t81.5 186.5v4q-108 -51 -256 -51q-236 0 -357.5 134.5t-121.5 377.5zM449 1024q0 -108 44 -165.5t148 -57.5 q105 0 190 28v195q0 99 -48.5 154t-141.5 55q-192 0 -192 -209z" />
<glyph unicode=":" horiz-adv-x="671" d="M160 0v352h352v-352h-352zM160 768v352h352v-352h-352z" />
<glyph unicode=";" horiz-adv-x="696" d="M25 -256l159 608h353v-129l-265 -479h-247zM184 768v352h353v-352h-353z" />
<glyph unicode="&#x3c;" d="M193 625v256l878 454h16v-327l-534 -256l534 -256v-328h-16z" />
<glyph unicode="=" d="M193 336v289h894v-289h-894zM193 831v289h894v-289h-894z" />
<glyph unicode="&#x3e;" d="M193 168v328l534 256l-534 256v327h16l878 -454v-256l-878 -457h-16z" />
<glyph unicode="?" horiz-adv-x="1064" d="M127 1233v303h448q210 0 317 -89t107 -263q0 -170 -184 -383l-199 -234v-55h-352v63l273 320q59 70 84.5 119t25.5 106q0 37 -18 61t-54.5 34.5t-73 14t-93.5 3.5h-281zM264 0v352h352v-352h-352z" />
<glyph unicode="@" horiz-adv-x="1888" d="M96 672q0 195 65 359.5t181 279t281 178t360 63.5q182 0 329.5 -45.5t255 -134t166 -226.5t58.5 -315q0 -242 -150.5 -377t-402.5 -135h-287q-183 0 -280 88t-97 265q0 174 102.5 279.5t274.5 105.5h295v-561h25q84 0 141.5 48t82 121.5t24.5 165.5q0 247 -139 368.5 t-398 121.5q-290 0 -452 -175.5t-162 -473.5q0 -293 158.5 -470t441.5 -177q206 0 366 30h17v-215q-68 -23 -176.5 -36t-206.5 -13q-407 0 -640 236t-233 645zM801 672q0 -81 38 -128.5t113 -47.5h72v385h-72q-79 0 -115 -58t-36 -151z" />
<glyph unicode="A" horiz-adv-x="1536" d="M63 0v16q49 203 177 639q70 238 170 512t149 369h432q51 -93 151 -366.5t171 -514.5q122 -416 176 -639v-16h-385q-36 170 -78 336h-530q-60 -242 -80 -336h-353zM578 641h372q-122 479 -182 614q-58 -136 -190 -614z" />
<glyph unicode="B" horiz-adv-x="1392" d="M160 0v1536h624q480 0 480 -416q0 -214 -185 -311q100 -38 158.5 -126t58.5 -212q0 -471 -512 -471h-624zM512 303h223q105 0 149 38.5t44 137.5q0 93 -45.5 127.5t-147.5 34.5h-223v-338zM512 911h223q77 0 119.5 45t42.5 123q0 154 -162 154h-223v-322z" />
<glyph unicode="C" horiz-adv-x="1376" d="M80 688v160q0 220 98.5 380.5t271 242t398.5 81.5q116 0 235.5 -17t196.5 -46v-449h-319v193q-18 4 -69.5 9t-76.5 5q-178 0 -272 -100.5t-94 -282.5v-176q0 -177 98 -288t268 -111h96q81 0 189 21t164 42h16v-297q-42 -20 -161.5 -45.5t-207.5 -25.5h-96 q-345 0 -540 182.5t-195 521.5z" />
<glyph unicode="D" horiz-adv-x="1552" d="M160 0v1536h575q183 0 325 -48t231.5 -136t135.5 -207t46 -264v-193q0 -152 -44 -276t-132 -217t-231 -144t-331 -51h-575zM512 303h223q179 0 274 111.5t95 306.5v127q0 182 -95 283.5t-274 101.5h-223v-930z" />
<glyph unicode="E" horiz-adv-x="1312" d="M160 416v1120h993v-303h-641v-305h575v-303h-575v-146q0 -98 33.5 -137t126.5 -39h512v-303h-639q-189 0 -287 110t-98 306z" />
<glyph unicode="F" horiz-adv-x="1150" d="M160 0v1024q0 512 545 512h382v-303h-382q-95 0 -144 -55t-49 -154v-160h545v-305h-545v-559h-352z" />
<glyph unicode="G" horiz-adv-x="1519" d="M80 688v160q0 142 43 259.5t118 199t178.5 137.5t223.5 82t254 26q261 0 479 -79v-306h-16q-107 40 -237 60t-242 20q-196 0 -314 -105t-118 -294v-160q0 -175 105 -287t277 -112h80q69 0 146 14v242h-226v303h545v-776q-82 -32 -209.5 -60t-255.5 -28h-80 q-347 0 -549 183.5t-202 520.5z" />
<glyph unicode="H" horiz-adv-x="1568" d="M160 0v1536h352v-592h545v592h350v-1536h-350v639h-545v-639h-352z" />
<glyph unicode="I" horiz-adv-x="671" d="M160 0v1536h352v-1536h-352z" />
<glyph unicode="J" horiz-adv-x="991" d="M63 0v303h226q105 0 147.5 49.5t42.5 159.5v721h-350v303h702v-1024q0 -252 -130 -382t-382 -130h-256z" />
<glyph unicode="K" horiz-adv-x="1536" d="M160 0v1536h352v-584h88l465 584h401v-16l-585 -705l622 -799v-16h-416l-503 647h-72v-647h-352z" />
<glyph unicode="L" horiz-adv-x="1150" d="M160 416v1120h352v-1057q0 -98 33.5 -137t126.5 -39h415v-303h-542q-189 0 -287 110t-98 306z" />
<glyph unicode="M" horiz-adv-x="1855" d="M160 0v1536h352l408 -584l423 584h353v-1536h-353v983l-382 -504h-97l-352 504v-983h-352z" />
<glyph unicode="N" horiz-adv-x="1568" d="M160 0v1536h319l578 -911v911h352v-1536h-322l-575 911v-911h-352z" />
<glyph unicode="O" horiz-adv-x="1568" d="M80 743v66q0 359 177 551t527 192q349 0 527 -192.5t178 -550.5v-66q0 -360 -179 -559.5t-526 -199.5q-348 0 -526 199t-178 560zM449 743q0 -105 15.5 -183.5t52.5 -141.5t104 -96t163 -33t163.5 33t104 96t52.5 141.5t16 183.5v66q0 104 -16 180t-53 136.5t-103.5 91 t-163.5 30.5q-78 0 -136 -21t-96 -57.5t-61 -92.5t-32.5 -120.5t-9.5 -146.5v-66z" />
<glyph unicode="P" horiz-adv-x="1376" d="M160 0v1536h561q274 0 424.5 -135t150.5 -424q0 -126 -31 -227t-86 -168.5t-132.5 -112t-166 -64.5t-192.5 -20h-176v-385h-352zM512 688h143q149 0 211 62t62 227q0 150 -61 203t-212 53h-143v-545z" />
<glyph unicode="Q" horiz-adv-x="1568" d="M80 743v66q0 359 177 551t527 192q349 0 527 -192.5t178 -550.5v-66q0 -329 -150 -524.5t-442 -228.5v-31q0 -64 29 -87.5t98 -23.5q116 0 240 39h16v-223q-144 -49 -256 -49q-164 0 -258 73t-94 224v78q-293 32 -442.5 227t-149.5 526zM449 743q0 -105 15.5 -183.5 t52.5 -141.5t104 -96t163 -33t163.5 33t104 96t52.5 141.5t16 183.5v66q0 104 -16 180t-53 136.5t-103.5 91t-163.5 30.5q-78 0 -136 -21t-96 -57.5t-61 -92.5t-32.5 -120.5t-9.5 -146.5v-66z" />
<glyph unicode="R" horiz-adv-x="1406" d="M160 0v1536h561q109 0 194.5 -15t158.5 -50.5t121 -93.5t74.5 -146.5t26.5 -206.5q0 -88 -20 -161.5t-57 -126.5t-77 -90.5t-93 -70.5q74 -59 155 -177t131.5 -224t57.5 -158v-16h-385q-15 53 -54 139t-103.5 183.5t-123.5 134.5h-215v-457h-352zM512 752h143 q147 0 210 57t63 199q0 72 -14.5 116.5t-50.5 68.5t-83 32t-125 8h-143v-481z" />
<glyph unicode="S" horiz-adv-x="1312" d="M113 55v297h16q74 -23 197.5 -43t218.5 -20h80q223 0 223 168q0 35 -14 61.5t-40.5 45t-54.5 30t-67 22.5l-240 64q-145 37 -232 141.5t-87 290.5q0 113 44.5 199.5t123 138t179 77t220.5 25.5h80q78 0 196.5 -17t180.5 -40v-295h-17q-59 17 -176 32t-184 15h-72 q-46 0 -81 -5.5t-65.5 -19.5t-46.5 -41.5t-16 -68.5q0 -61 38.5 -93.5t107.5 -49.5l239 -66q177 -47 265 -155t88 -291q0 -126 -43.5 -218.5t-124 -147.5t-186 -81t-238.5 -26h-80q-92 0 -221 21t-211 50z" />
<glyph unicode="T" horiz-adv-x="1247" d="M33 1233v303h1184v-303h-416v-1233h-352v1233h-416z" />
<glyph unicode="U" horiz-adv-x="1568" d="M160 559v977h352v-983q0 -134 64.5 -199t207.5 -65t208 65t65 199v983h350v-977q0 -143 -47.5 -254t-132.5 -180.5t-197 -105t-246 -35.5q-296 0 -460 144.5t-164 430.5z" />
<glyph unicode="V" horiz-adv-x="1552" d="M63 1520v16h386q55 -284 160 -669t175 -556q75 182 188 570t165 655h352v-16q-93 -422 -235 -853t-246 -667h-463q-111 252 -253.5 678t-228.5 842z" />
<glyph unicode="W" horiz-adv-x="2320" d="M63 1520v16h386q38 -297 118 -667t154 -558q80 189 165 560.5t122 664.5h319q38 -288 122.5 -652t166.5 -573q75 208 154 571t118 654h383v-16q-63 -412 -174 -826t-225 -694h-479q-66 159 -129 362.5t-97 389.5q-32 -182 -96.5 -391t-126.5 -361h-479 q-122 279 -234 709.5t-168 810.5z" />
<glyph unicode="X" horiz-adv-x="1423" d="M33 0v16l479 768l-457 736v16h394l266 -430l268 430h360v-16l-446 -709l496 -795v-16h-394l-303 487l-305 -487h-358z" />
<glyph unicode="Y" horiz-adv-x="1431" d="M33 1520v16h366l322 -655l336 655h344v-16l-520 -936v-584h-353v584z" />
<glyph unicode="Z" horiz-adv-x="1296" d="M80 0v209q159 195 382.5 523.5t313.5 500.5h-663v303h1120v-209q-84 -166 -303 -498t-371 -526h674v-303h-1153z" />
<glyph unicode="[" horiz-adv-x="944" d="M193 -256v1792h622v-256h-270v-1280h270v-256h-622z" />
<glyph unicode="\" horiz-adv-x="1191" d="M63 1503v33h322l743 -1759v-33h-319z" />
<glyph unicode="]" horiz-adv-x="944" d="M127 0h272v1280h-272v256h625v-1792h-625v256z" />
<glyph unicode="^" d="M63 223v17l457 880h240l457 -880v-17h-320l-256 537l-256 -537h-322z" />
<glyph unicode="_" d="M63 0h1154v-289h-1154v289z" />
<glyph unicode="`" horiz-adv-x="575" d="M0 1571v28h377l198 -286v-33h-223z" />
<glyph unicode="a" horiz-adv-x="1376" d="M113 352v223q0 164 78 289t212 190.5t302 65.5h512v-1120h-353v152l-80 -56q-83 -57 -155 -84.5t-158 -27.5q-172 0 -265 97t-93 271zM465 416q0 -66 30.5 -96.5t96.5 -30.5q80 0 209 80l63 39v423h-129q-270 0 -270 -256v-159z" />
<glyph unicode="b" horiz-adv-x="1376" d="M160 0v1536h352v-567l80 55q81 58 153.5 85.5t157.5 27.5q173 0 267 -97t94 -272v-223q0 -164 -78 -289t-212 -190.5t-302 -65.5h-512zM512 289h129q270 0 270 256v160q0 66 -30.5 96t-96.5 30q-82 0 -209 -79l-63 -39v-424z" />
<glyph unicode="c" horiz-adv-x="1136" d="M80 416v239q0 144 74.5 255.5t198 169t272.5 57.5q222 0 383 -80v-385h-287v143q-32 16 -96 16q-91 0 -142 -50.5t-51 -139.5v-145q0 -207 223 -207q79 0 172.5 15t163.5 40h17v-289q-59 -29 -167 -50t-194 -21q-99 0 -182 14t-155 46.5t-122.5 81.5t-79 123t-28.5 167z " />
<glyph unicode="d" horiz-adv-x="1376" d="M113 352v223q0 164 78 289t212 190.5t302 65.5h159v416h353v-1536h-353v152l-80 -56q-83 -57 -155 -84.5t-158 -27.5q-172 0 -265 97t-93 271zM465 416q0 -66 30.5 -96.5t96.5 -30.5q80 0 209 80l63 39v423h-129q-270 0 -270 -256v-159z" />
<glyph unicode="e" horiz-adv-x="1263" d="M80 440v215q0 118 43.5 211t120.5 151.5t179.5 89t223.5 30.5q504 0 504 -369q0 -171 -111 -249.5t-305 -78.5h-303v-8q0 -43 20 -73t56.5 -44.5t75 -20t88.5 -5.5q196 0 368 47h17v-289q-88 -32 -206.5 -47.5t-211.5 -15.5q-127 0 -227 25.5t-175.5 79t-116 142.5 t-40.5 209zM432 647h281q118 0 118 96q0 28 -10.5 48t-26 30.5t-41.5 17t-49.5 8t-56.5 1.5q-106 0 -160.5 -42.5t-54.5 -141.5v-17z" />
<glyph unicode="f" horiz-adv-x="751" d="M16 831v289h177v33q0 184 105.5 283.5t293.5 99.5h223v-256h-110q-80 0 -120 -34t-40 -109v-17h239v-289h-239v-831h-352v831h-177z" />
<glyph unicode="g" horiz-adv-x="1376" d="M113 432v143q0 164 78 289t212 190.5t302 65.5h512v-960q0 -254 -158.5 -399.5t-419.5 -145.5h-383v289h256q92 0 153.5 11.5t108.5 41.5t68.5 86t21.5 141v9l-80 -41q-4 -2 -25.5 -12t-27.5 -13t-26 -12t-28.5 -12t-27.5 -10.5t-30.5 -10.5t-30 -7.5t-33 -6.5 t-32.5 -3.5t-36 -1.5q-181 0 -277.5 95t-96.5 274zM465 496q0 -66 30.5 -96.5t96.5 -30.5q93 0 217 55l55 25v382h-129q-270 0 -270 -256v-79z" />
<glyph unicode="h" horiz-adv-x="1406" d="M160 0v1536h352v-584l47 31q72 48 98 64t79 43.5t96.5 37t95.5 9.5q159 0 239 -93.5t80 -259.5v-784h-352v688q0 74 -20.5 108.5t-81.5 34.5q-71 0 -218 -96l-63 -39v-696h-352z" />
<glyph unicode="i" horiz-adv-x="704" d="M33 831v289h512v-1120h-352v831h-160zM193 1247v289h352v-289h-352z" />
<glyph unicode="j" horiz-adv-x="720" d="M-33 -96h49q107 0 150 42.5t43 149.5v735h-162v289h512v-1057q0 -145 -60.5 -248t-159.5 -151.5t-226 -48.5h-146v289zM209 1247v289h350v-289h-350z" />
<glyph unicode="k" horiz-adv-x="1312" d="M160 0v1536h352v-801h80l319 385h385v-16l-415 -488l415 -600v-16h-399l-305 449h-80v-449h-352z" />
<glyph unicode="l" horiz-adv-x="704" d="M33 1247v289h512v-1536h-352v1247h-160z" />
<glyph unicode="m" horiz-adv-x="2111" d="M160 0v1120h352v-170l41 33q98 81 177.5 117.5t180.5 36.5q228 0 297 -193h17l47 39q100 81 179.5 117.5t180.5 36.5q158 0 239 -94t81 -259v-784h-353v688q0 73 -21 108t-83 35q-75 0 -207 -96l-55 -39v-696h-352v688q0 73 -21.5 108t-83.5 35q-73 0 -209 -96l-55 -39 v-696h-352z" />
<glyph unicode="n" horiz-adv-x="1406" d="M160 0v1120h352v-170l47 33q114 81 192.5 117.5t176.5 36.5q159 0 239 -93.5t80 -259.5v-784h-352v688q0 74 -20.5 108.5t-81.5 34.5q-71 0 -218 -96l-63 -39v-696h-352z" />
<glyph unicode="o" horiz-adv-x="1312" d="M80 559q0 578 575 578q292 0 435 -140t143 -438q0 -160 -35.5 -271t-110 -178t-179.5 -96.5t-253 -29.5q-142 0 -245.5 29.5t-179 96t-113 178.5t-37.5 271zM432 559q0 -148 51 -209t172 -61t173.5 61t52.5 209q0 149 -52.5 210.5t-173.5 61.5t-172 -61t-51 -211z" />
<glyph unicode="p" horiz-adv-x="1376" d="M160 -385v1505h352v-151l80 55q81 58 153.5 85.5t157.5 27.5q173 0 267 -97t94 -272v-223q0 -164 -78 -289t-212 -190.5t-302 -65.5h-160v-385h-352zM512 289h129q270 0 270 256v160q0 66 -30.5 96t-96.5 30q-82 0 -209 -79l-63 -39v-424z" />
<glyph unicode="q" horiz-adv-x="1376" d="M113 352v223q0 164 78 289t212 190.5t302 65.5h512v-1505h-353v537l-80 -56q-83 -57 -155 -84.5t-158 -27.5q-172 0 -265 97t-93 271zM465 416q0 -66 30.5 -96.5t96.5 -30.5q80 0 209 80l63 39v423h-129q-270 0 -270 -256v-159z" />
<glyph unicode="r" horiz-adv-x="897" d="M160 0v1120h352v-137q46 71 128.5 112.5t168.5 41.5h88v-306h-121q-168 0 -264 -110v-721h-352z" />
<glyph unicode="s" horiz-adv-x="1103" d="M80 25v294h16q197 -38 361 -38q198 0 198 63q0 33 -20.5 47.5t-67.5 24.5l-176 41q-158 36 -234.5 118.5t-76.5 200.5q0 93 43 164t120.5 113t177 63t220.5 21q155 0 320 -33v-295h-17q-213 31 -311 31q-184 0 -184 -56q0 -22 17.5 -36.5t33 -19.5t51.5 -13q5 -1 8 -2 l154 -33q311 -66 311 -328q0 -368 -567 -368q-206 0 -377 41z" />
<glyph unicode="t" horiz-adv-x="864" d="M16 831v289h177v289h352v-289h286v-289h-286v-319q0 -123 44.5 -173t162.5 -50h112v-289h-209q-219 0 -340.5 109.5t-121.5 322.5v399h-177z" />
<glyph unicode="u" horiz-adv-x="1406" d="M160 336v784h352v-688q0 -73 21 -108t83 -35q29 0 70.5 16.5t66.5 31t78 46.5l64 41v696h352v-1120h-352v168l-47 -33q-64 -43 -95.5 -62.5t-81 -44.5t-95 -34.5t-97.5 -9.5q-158 0 -238.5 93.5t-80.5 258.5z" />
<glyph unicode="v" horiz-adv-x="1183" d="M63 831v289h353v-289q0 -182 53 -341t131 -250q74 88 121 246t47 345v289h352v-289q0 -135 -36 -276t-90 -249t-109 -187.5t-101 -118.5h-399q-45 38 -98.5 118t-104.5 188t-85 248.5t-34 276.5z" />
<glyph unicode="w" horiz-adv-x="1792" d="M63 831v289h353v-289q0 -193 39.5 -350t111.5 -241q72 85 113 242t41 349v289h350v-289q0 -192 41 -349t113 -242q72 84 111.5 241t39.5 350v289h353v-289q0 -135 -34 -276t-85 -249t-103.5 -187.5t-97.5 -118.5h-369q-29 24 -78.5 113t-72.5 159q-23 -67 -79 -155 t-89 -117h-369q-44 37 -93 117.5t-93.5 188.5t-73.5 248.5t-29 276.5z" />
<glyph unicode="x" horiz-adv-x="1087" d="M0 0v16l367 549l-351 539v16h353l182 -280l184 280h336v-16l-350 -526l366 -562v-16h-352l-196 301l-203 -301h-336z" />
<glyph unicode="y" horiz-adv-x="1392" d="M143 496v624h353v-561q0 -66 31.5 -96.5t97.5 -30.5q98 0 206 55l50 25v608h352v-960q0 -255 -158 -400t-420 -145h-366v289h239q95 0 157 12.5t108.5 45t67 91t20.5 148.5v55l-72 -41q-79 -42 -143 -64t-146 -22q-181 0 -279 94t-98 273z" />
<glyph unicode="z" horiz-adv-x="1071" d="M63 0v209q352 347 521 622h-504v289h928v-209q-70 -139 -205 -319t-258 -303h479v-289h-961z" />
<glyph unicode="{" horiz-adv-x="1071" d="M129 520v240q66 5 112 17t74.5 29.5t44 46.5t20.5 60t5 78v193q0 352 416 352h207v-256h-97q-106 0 -141 -43t-35 -166v-127q0 -73 -20 -127.5t-58 -88.5t-82.5 -54t-103.5 -33q59 -13 103 -33.5t82.5 -55t58.5 -89t20 -127.5v-127q0 -123 35 -166t141 -43h97v-256h-207 q-416 0 -416 352v193q0 47 -5 78t-20.5 60t-44 46.5t-74.5 29.5t-112 17z" />
<glyph unicode="|" horiz-adv-x="735" d="M223 -385v2050h289v-2050h-289z" />
<glyph unicode="}" horiz-adv-x="1071" d="M63 0h97q106 0 141 43t35 166v127q0 73 20.5 127.5t59 89t82.5 55t102 33.5q-58 13 -102.5 33t-82.5 54t-58.5 88.5t-20.5 127.5v127q0 123 -35 166t-141 43h-97v256h209q416 0 416 -352v-193q0 -47 5 -78t20.5 -60t44 -46.5t74.5 -29.5t112 -17v-240q-66 -5 -112 -17 t-74.5 -29.5t-44 -46.5t-20.5 -60t-5 -78v-193q0 -352 -416 -352h-209v256z" />
<glyph unicode="~" d="M193 471v281q32 60 96 102.5t143 42.5q48 0 110.5 -21.5t113 -47t107 -47t93.5 -21.5q81 0 129 33.5t86 103.5h16v-281q-32 -60 -96 -102.5t-143 -42.5q-48 0 -110.5 21.5t-113 47t-107 47t-93.5 21.5q-70 0 -121 -34t-94 -103h-16z" />
<glyph unicode="&#xa2;" d="M63 688v160q0 285 155 465t423 225v238h256v-226q153 -8 303 -55v-295h-16q-180 47 -400 47q-176 0 -264 -99.5t-88 -283.5v-176q0 -182 84.5 -290.5t251.5 -108.5h96q79 0 168.5 20t151.5 43h16v-297q-44 -19 -133 -42.5t-170 -28.5v-240h-256v248q-282 32 -430 210 t-148 486z" />
<glyph unicode="&#xa3;" d="M113 0v303h110q36 30 58 93.5t22 131.5v97h-160v303h160v55q0 273 152.5 413t433.5 140h278v-303h-278q-234 0 -234 -250v-55h385v-303h-385v-97q0 -66 -21.5 -127t-58.5 -98h592v-303h-1054z" />
<glyph unicode="&#xa5;" d="M0 1520v16h369l278 -592l289 592h344v-16l-471 -873v-88h336v-303h-336v-256h-352v256h-336v303h336v88z" />
<glyph unicode="&#xa8;" horiz-adv-x="847" d="M0 1280v256h272v-256h-272zM575 1280v256h273v-256h-273z" />
<glyph unicode="&#xa9;" horiz-adv-x="1800" d="M96 784q0 165 63.5 306.5t172.5 238.5t257 152t314 55q224 0 406 -93.5t288.5 -266t106.5 -392.5q0 -165 -62 -306t-169.5 -238t-255 -152t-314.5 -55q-166 0 -314 55t-257 151.5t-172.5 238t-63.5 306.5zM281 784q0 -271 168.5 -439.5t453.5 -168.5q189 0 330 78 t214 215t73 315q0 271 -166.5 440t-450.5 169q-285 0 -453.5 -169t-168.5 -440zM496 784q0 110 39.5 192.5t108 130t152 70.5t181.5 23q86 0 199 -33v-110q-118 30 -199 30q-126 0 -203.5 -77t-77.5 -226q0 -150 80.5 -227.5t206.5 -77.5q96 0 193 33v-113 q-101 -30 -193 -30q-77 0 -146 13.5t-132.5 45t-109 78.5t-72.5 118t-27 160z" />
<glyph unicode="&#xab;" horiz-adv-x="1200" d="M129 575v226l424 319h22v-256l-239 -176l239 -176v-256h-22zM641 575v226l424 319h22v-256l-239 -176l239 -176v-256h-22z" />
<glyph unicode="&#xad;" horiz-adv-x="831" d="M63 608v289h705v-289h-705z" />
<glyph unicode="&#xae;" horiz-adv-x="1800" d="M96 784q0 165 63.5 306.5t172.5 238.5t257 152t314 55q224 0 406 -93.5t288.5 -266t106.5 -392.5q0 -165 -62 -306t-169.5 -238t-255 -152t-314.5 -55q-166 0 -314 55t-257 151.5t-172.5 238t-63.5 306.5zM281 784q0 -271 168.5 -439.5t453.5 -168.5q189 0 330 78 t214 215t73 315q0 271 -166.5 440t-450.5 169q-285 0 -453.5 -169t-168.5 -440zM575 369v831h306q344 0 344 -256q0 -83 -46.5 -145t-121.5 -86l190 -328v-16h-207l-155 278h-109v-278h-201zM776 768h80q74 0 121 42.5t47 133.5q0 73 -47 108t-121 35h-80v-319z" />
<glyph unicode="&#xb4;" horiz-adv-x="575" d="M0 1280v33l201 286h374v-28l-352 -291h-223z" />
<glyph unicode="&#xb8;" horiz-adv-x="487" d="M0 -240h193q110 0 110 64q0 9 -1.5 17t-6.5 15.5t-8 13t-11.5 12.5t-12 10.5t-15.5 10t-15 8.5t-16.5 9t-15.5 8v25h159q54 -25 90.5 -73t36.5 -95q0 -86 -63 -128t-160 -42h-264v145z" />
<glyph unicode="&#xbb;" horiz-adv-x="1200" d="M113 256v256l239 176l-239 176v256h22l424 -319v-226l-424 -319h-22zM625 256v256l239 176l-239 176v256h22l424 -319v-226l-424 -319h-22z" />
<glyph unicode="&#xc2;" horiz-adv-x="1536" d="M63 0v16q49 203 177 639q70 238 170 512t149 369h432q51 -93 151 -366.5t171 -514.5q122 -416 176 -639v-16h-385q-36 170 -78 336h-530q-60 -242 -80 -336h-353zM319 1696v33l289 335h322l287 -335v-33h-226l-215 192h-16l-215 -192h-226zM578 641h372 q-122 479 -182 614q-58 -136 -190 -614z" />
<glyph unicode="&#xc7;" horiz-adv-x="1376" d="M80 688v160q0 220 98.5 380.5t271 242t398.5 81.5q116 0 235.5 -17t196.5 -46v-449h-319v193q-18 4 -69.5 9t-76.5 5q-178 0 -272 -100.5t-94 -282.5v-176q0 -177 98 -288t268 -111h96q81 0 189 21t164 42h16v-297q-42 -20 -161.5 -45.5t-207.5 -25.5h-96 q-345 0 -540 182.5t-195 521.5zM516 -240h193q110 0 110 64q0 9 -1.5 17t-6.5 15.5t-8 13t-11.5 12.5t-12 10.5t-15.5 10t-15 8.5t-16.5 9t-15.5 8v25h160q54 -25 90.5 -73t36.5 -95q0 -86 -63.5 -128t-160.5 -42h-264v145z" />
<glyph unicode="&#xce;" horiz-adv-x="671" d="M-113 1696v33l289 335h322l286 -335v-33h-225l-215 192h-16l-215 -192h-226zM160 0v1536h352v-1536h-352z" />
<glyph unicode="&#xd6;" horiz-adv-x="1568" d="M80 743v66q0 359 177 551t527 192q349 0 527 -192.5t178 -550.5v-66q0 -360 -179 -559.5t-526 -199.5q-348 0 -526 199t-178 560zM362 1696v256h273v-256h-273zM449 743q0 -105 15.5 -183.5t52.5 -141.5t104 -96t163 -33t163.5 33t104 96t52.5 141.5t16 183.5v66 q0 104 -16 180t-53 136.5t-103.5 91t-163.5 30.5q-78 0 -136 -21t-96 -57.5t-61 -92.5t-32.5 -120.5t-9.5 -146.5v-66zM938 1696v256h272v-256h-272z" />
<glyph unicode="&#xdb;" horiz-adv-x="1568" d="M160 559v977h352v-983q0 -134 64.5 -199t207.5 -65t208 65t65 199v983h350v-977q0 -143 -47.5 -254t-132.5 -180.5t-197 -105t-246 -35.5q-296 0 -460 144.5t-164 430.5zM336 1696v33l289 335h321l287 -335v-33h-225l-215 192h-17l-217 -192h-223z" />
<glyph unicode="&#xdc;" horiz-adv-x="1568" d="M160 559v977h352v-983q0 -134 64.5 -199t207.5 -65t208 65t65 199v983h350v-977q0 -143 -47.5 -254t-132.5 -180.5t-197 -105t-246 -35.5q-296 0 -460 144.5t-164 430.5zM362 1696v256h273v-256h-273zM938 1696v256h272v-256h-272z" />
<glyph unicode="&#xe2;" horiz-adv-x="1376" d="M113 352v223q0 164 78 289t212 190.5t302 65.5h512v-1120h-353v152l-80 -56q-83 -57 -155 -84.5t-158 -27.5q-172 0 -265 97t-93 271zM272 1280v33l287 336h324l284 -336v-33h-223l-217 193h-14l-217 -193h-224zM465 416q0 -66 30.5 -96.5t96.5 -30.5q80 0 209 80l63 39 v423h-129q-270 0 -270 -256v-159z" />
<glyph unicode="&#xe7;" horiz-adv-x="1136" d="M80 416v239q0 144 74.5 255.5t198 169t272.5 57.5q222 0 383 -80v-385h-287v143q-32 16 -96 16q-91 0 -142 -50.5t-51 -139.5v-145q0 -207 223 -207q79 0 172.5 15t163.5 40h17v-289q-59 -29 -167 -50t-194 -21q-99 0 -182 14t-155 46.5t-122.5 81.5t-79 123t-28.5 167z M307 -240h193q112 0 112 64q0 10 -3 19.5t-6 16.5t-11.5 15t-13 12t-17 11.5t-17 10t-19 10.5t-17.5 9v25h160q54 -25 91.5 -73t37.5 -95q0 -86 -64 -128t-162 -42h-264v145z" />
<glyph unicode="&#xee;" horiz-adv-x="704" d="M-113 1280v33l289 336h322l286 -336v-33h-225l-215 193h-16l-215 -193h-226zM33 831v289h512v-1120h-352v831h-160z" />
<glyph unicode="&#xf6;" horiz-adv-x="1312" d="M80 559q0 578 575 578q292 0 435 -140t143 -438q0 -160 -35.5 -271t-110 -178t-179.5 -96.5t-253 -29.5q-142 0 -245.5 29.5t-179 96t-113 178.5t-37.5 271zM233 1280v256h273v-256h-273zM432 559q0 -148 51 -209t172 -61t173.5 61t52.5 209q0 149 -52.5 210.5 t-173.5 61.5t-172 -61t-51 -211zM811 1280v256h270v-256h-270z" />
<glyph unicode="&#xfb;" horiz-adv-x="1406" d="M160 336v784h352v-688q0 -73 21 -108t83 -35q29 0 70.5 16.5t66.5 31t78 46.5l64 41v696h352v-1120h-352v168l-47 -33q-64 -43 -95.5 -62.5t-81 -44.5t-95 -34.5t-97.5 -9.5q-158 0 -238.5 93.5t-80.5 258.5zM256 1280v33l289 336h321l285 -336v-33h-223l-215 193h-17 l-217 -193h-223z" />
<glyph unicode="&#xfc;" horiz-adv-x="1406" d="M160 336v784h352v-688q0 -73 21 -108t83 -35q29 0 70.5 16.5t66.5 31t78 46.5l64 41v696h352v-1120h-352v168l-47 -33q-64 -43 -95.5 -62.5t-81 -44.5t-95 -34.5t-97.5 -9.5q-158 0 -238.5 93.5t-80.5 258.5zM283 1280v256h272v-256h-272zM858 1280v256h272v-256h-272z " />
<glyph unicode="&#x11e;" horiz-adv-x="1519" d="M80 688v160q0 142 43 259.5t118 199t178.5 137.5t223.5 82t254 26q261 0 479 -79v-306h-16q-107 40 -237 60t-242 20q-196 0 -314 -105t-118 -294v-160q0 -175 105 -287t277 -112h80q69 0 146 14v242h-226v303h545v-776q-82 -32 -209.5 -60t-255.5 -28h-80 q-347 0 -549 183.5t-202 520.5zM457 2064h153q0 -83 61.5 -129.5t159.5 -46.5q100 0 163 46.5t63 129.5h151q0 -66 -24.5 -130.5t-69.5 -118t-119 -86.5t-164 -33t-163.5 33t-118 87t-68.5 118t-24 130z" />
<glyph unicode="&#x11f;" horiz-adv-x="1376" d="M113 432v143q0 164 78 289t212 190.5t302 65.5h512v-960q0 -254 -158.5 -399.5t-419.5 -145.5h-383v289h256q92 0 153.5 11.5t108.5 41.5t68.5 86t21.5 141v9l-80 -41q-4 -2 -25.5 -12t-27.5 -13t-26 -12t-28.5 -12t-27.5 -10.5t-30.5 -10.5t-30 -7.5t-33 -6.5 t-32.5 -3.5t-36 -1.5q-181 0 -277.5 95t-96.5 274zM336 1649h153q0 -83 62.5 -129.5t161.5 -46.5q98 0 160.5 46.5t62.5 129.5h151q0 -53 -14.5 -104.5t-45.5 -99.5t-74 -84.5t-105.5 -58.5t-134.5 -22t-134.5 22t-106.5 58.5t-75 84.5t-46 100t-15 104zM465 496 q0 -66 30.5 -96.5t96.5 -30.5q93 0 217 55l55 25v382h-129q-270 0 -270 -256v-79z" />
<glyph unicode="&#x130;" horiz-adv-x="671" d="M160 0v1536h352v-1536h-352zM160 1679v256h352v-256h-352z" />
<glyph unicode="&#x131;" horiz-adv-x="704" d="M33 831v289h512v-1120h-352v831h-160z" />
<glyph unicode="&#x15e;" horiz-adv-x="1312" d="M113 55v297h16q74 -23 197.5 -43t218.5 -20h80q223 0 223 168q0 35 -14 61.5t-40.5 45t-54.5 30t-67 22.5l-240 64q-145 37 -232 141.5t-87 290.5q0 113 44.5 199.5t123 138t179 77t220.5 25.5h80q78 0 196.5 -17t180.5 -40v-295h-17q-59 17 -176 32t-184 15h-72 q-46 0 -81 -5.5t-65.5 -19.5t-46.5 -41.5t-16 -68.5q0 -61 38.5 -93.5t107.5 -49.5l239 -66q177 -47 265 -155t88 -291q0 -126 -43.5 -218.5t-124 -147.5t-186 -81t-238.5 -26h-80q-92 0 -221 21t-211 50zM299 -240h193q112 0 112 64q0 24 -17 44.5t-30 28.5t-48 26 q-6 3 -9 5v25h159q54 -25 91.5 -73t37.5 -95q0 -86 -63.5 -128t-161.5 -42h-264v145z" />
<glyph unicode="&#x15f;" horiz-adv-x="1103" d="M80 25v294h16q197 -38 361 -38q198 0 198 63q0 33 -20.5 47.5t-67.5 24.5l-176 41q-158 36 -234.5 118.5t-76.5 200.5q0 93 43 164t120.5 113t177 63t220.5 21q155 0 320 -33v-295h-17q-213 31 -311 31q-184 0 -184 -56q0 -22 17.5 -36.5t33 -19.5t51.5 -13q5 -1 8 -2 l154 -33q311 -66 311 -328q0 -368 -567 -368q-206 0 -377 41zM188 -240h193q111 0 111 64q0 34 -24.5 55.5t-69.5 43.5q-3 1 -4 1.5l-3 1.5l-4 2v25h162q54 -25 90.5 -73t36.5 -95q0 -86 -63 -128t-160 -42h-265v145z" />
<glyph unicode="&#x2c6;" horiz-adv-x="894" d="M0 1280v33l289 336h321l285 -336v-33h-223l-215 193h-17l-217 -193h-223z" />
<glyph unicode="&#x2da;" horiz-adv-x="559" d="M0 1489q0 98 78.5 152.5t202.5 54.5q126 0 202 -52t76 -155q0 -100 -77 -154.5t-201 -54.5q-129 0 -205 50t-76 159zM143 1489q0 -54 35 -91.5t103 -37.5q67 0 101 37.5t34 91.5q0 53 -34 90t-101 37t-102.5 -37.5t-35.5 -89.5z" />
<glyph unicode="&#x2dc;" horiz-adv-x="704" d="M0 1280v201q32 44 85.5 81t115.5 37q46 0 101 -31.5t104 -63t81 -31.5q34 0 63.5 10t55 31t42.5 39t40 46h17v-186q-32 -46 -93.5 -89.5t-124.5 -43.5q-46 0 -100.5 32t-103.5 64.5t-82 32.5t-60 -10t-51.5 -33.5t-37 -38t-36.5 -47.5h-16z" />
<glyph unicode="&#x2000;" horiz-adv-x="1032" />
<glyph unicode="&#x2001;" horiz-adv-x="2064" />
<glyph unicode="&#x2002;" horiz-adv-x="1032" />
<glyph unicode="&#x2003;" horiz-adv-x="2064" />
<glyph unicode="&#x2004;" horiz-adv-x="688" />
<glyph unicode="&#x2005;" horiz-adv-x="516" />
<glyph unicode="&#x2006;" horiz-adv-x="344" />
<glyph unicode="&#x2007;" horiz-adv-x="344" />
<glyph unicode="&#x2008;" horiz-adv-x="258" />
<glyph unicode="&#x2009;" horiz-adv-x="412" />
<glyph unicode="&#x200a;" horiz-adv-x="114" />
<glyph unicode="&#x2010;" horiz-adv-x="831" d="M63 608v289h705v-289h-705z" />
<glyph unicode="&#x2011;" horiz-adv-x="831" d="M63 608v289h705v-289h-705z" />
<glyph unicode="&#x2012;" horiz-adv-x="831" d="M63 608v289h705v-289h-705z" />
<glyph unicode="&#x2013;" horiz-adv-x="1024" d="M63 608v289h898v-289h-898z" />
<glyph unicode="&#x2014;" horiz-adv-x="2048" d="M63 608v289h1922v-289h-1922z" />
<glyph unicode="&#x2018;" horiz-adv-x="608" d="M55 928v129l264 479h248l-159 -608h-353z" />
<glyph unicode="&#x2019;" horiz-adv-x="608" d="M33 928l160 608h352v-127l-264 -481h-248z" />
<glyph unicode="&#x201a;" horiz-adv-x="671" d="M25 -256l159 608h353v-129l-265 -479h-247z" />
<glyph unicode="&#x201c;" horiz-adv-x="1136" d="M63 928v129l265 479h247l-159 -608h-353zM592 928v129l264 479h248l-160 -608h-352z" />
<glyph unicode="&#x201d;" horiz-adv-x="1136" d="M33 928l160 608h352v-127l-264 -481h-248zM559 928l162 608h350v-127l-262 -481h-250z" />
<glyph unicode="&#x201e;" horiz-adv-x="1136" d="M25 -256l159 608h353v-129l-265 -479h-247zM553 -256l160 608h352v-129l-264 -479h-248z" />
<glyph unicode="&#x2026;" horiz-adv-x="1888" d="M160 0v352h352v-352h-352zM768 0v352h352v-352h-352zM1376 0v352h353v-352h-353z" />
<glyph unicode="&#x202f;" horiz-adv-x="412" />
<glyph unicode="&#x2039;" horiz-adv-x="688" d="M129 575v226l424 319h22v-256l-239 -176l239 -176v-256h-22z" />
<glyph unicode="&#x203a;" horiz-adv-x="688" d="M113 256v256l239 176l-239 176v256h22l424 -319v-226l-424 -319h-22z" />
<glyph unicode="&#x205f;" horiz-adv-x="516" />
<glyph unicode="&#x20ac;" d="M63 512v184h160v144h-160v184h160q0 159 84 281t221.5 184.5t302.5 62.5h50q80 0 170 -19.5t133 -43.5v-297h-17q-54 25 -132.5 40t-153.5 15h-50q-239 0 -239 -223h465v-184h-465v-144h465v-184h-465q0 -114 65.5 -168.5t173.5 -54.5h66q146 0 270 63h17v-297 q-145 -71 -287 -71h-66q-95 0 -182.5 19t-165.5 61t-135.5 102.5t-91 149.5t-33.5 196h-160z" />
<glyph unicode="&#x2122;" horiz-adv-x="1759" d="M63 1352v184h625v-184h-201v-647h-223v647h-201zM801 705v831h215l201 -328l198 328h217v-831h-223v448l-154 -256h-79l-152 240v-432h-223z" />
<glyph unicode="&#x25fc;" horiz-adv-x="1116" d="M0 0v1116h1116v-1116h-1116z" />
</font>
</defs>
</svg>
