<?xml version="1.0" standalone="no"?>
<!DOCTYPE svg PUBLIC "-//W3C//DTD SVG 1.1//EN" "http://www.w3.org/Graphics/SVG/1.1/DTD/svg11.dtd">
<svg xmlns="http://www.w3.org/2000/svg">
<metadata>Copyright (C) 2018 by original authors @ fontello.com</metadata>
<defs>
<font id="fontello" horiz-adv-x="1000" >
<font-face font-family="fontello" font-weight="400" font-stretch="normal" units-per-em="1000" ascent="850" descent="-150" />
<missing-glyph horiz-adv-x="1000" />
<glyph glyph-name="chevron-down" unicode="&#xe800;" d="M800 264l-578 579c-10 9-26 10-36 0l-179-179c-9-10-9-26 0-35l767-767c7-7 17-9 26-5 9-4 20-2 27 5l766 767c10 9 10 25 1 35l-180 179c-9 10-25 9-35 0l-579-579z" horiz-adv-x="1600" />

<glyph glyph-name="user-plus" unicode="&#xe801;" d="M383 350c116 0 211 135 211 250l0 42c0 115-95 208-211 208-117 0-211-93-211-208l0-42c0-115 94-250 211-250z m196-324c0 78 36 147 93 192-4 2-8 4-12 5-68 23-171 49-288 49-117 0-220-26-288-49-50-17-84-64-84-116l0-163 593 0c-9 25-14 53-14 82z" horiz-adv-x="1000" />

<glyph glyph-name="lock" unicode="&#xe802;" d="M375 850c-138 0-250-112-250-250l0-83-83 0c-23 0-42-19-42-42l0-583c0-23 19-42 42-42l666 0c23 0 42 19 42 42l0 583c0 23-19 42-42 42l-83 0 0 83c0 138-112 250-250 250z m42-742l0-91-84 0 0 91c-48 17-83 63-83 117 0 69 56 125 125 125 69 0 125-56 125-125 0-54-35-100-83-117z m125 409l-334 0 0 83c0 92 75 167 167 167 92 0 167-75 167-167l0-83z" horiz-adv-x="750" />

<glyph glyph-name="home" unicode="&#xe803;" d="M345-31l144 109c14 11 22 27 22 44s-8 34-22 45l-152 115v42c16-4 32-7 49-7 28 0 56 7 81 20 52-26 112-26 164 0 51-26 112-26 163 0 25-13 53-20 82-20 16 0 33 3 49 7v-333c0-18-15-33-33-33h-196v163h-131v-163h-196c-9 0-18 4-24 11z m41 414c-68 0-115 53-115 130 0 7 2 13 6 18l131 196c6 10 16 15 27 15h392c11 0 21-5 27-15l131-196c3-5 5-11 5-18 0-77-47-130-114-130-31 0-60 12-82 34-21-22-51-34-82-34s-60 12-81 34c-22-22-51-34-82-34s-60 12-82 34c-21-22-51-34-81-34z m-350-416c-4-5-10-7-17-5-6 3-9 9-9 15 6 77 45 219 250 219v74c-1 6 3 11 7 13 5 3 11 2 16-1l187-141c6-5 9-11 9-19 0-7-3-14-9-18l-188-141c-4-4-10-4-15-2-4 3-8 8-7 13v75c0 0-133 24-224-82z" horiz-adv-x="1000" />

<glyph glyph-name="users" unicode="&#xe804;" d="M240 293c48 15 115 31 190 31 83 0 156-19 203-36 36-12 59-45 59-83v-118h-236c-27 89-95 150-215 159v39c0 3 0 5-1 8z m459-10c27 6 58 11 89 11 70 0 133-23 174-37 30-10 50-40 50-72v-102h-290v152c0 16-9 33-23 48z m93 64c-69 0-124 82-124 153v25c0 70 55 128 124 128 69 0 124-58 124-128v-25c0-71-55-153-124-153z m-365 41c-82 0-148 96-148 177v30c0 81 66 147 148 147s147-66 147-147v-30c0-81-66-177-147-177z m-12-387c-83 97-204 75-204 75v-68c0-5-3-10-7-12-5-2-10-2-14 1l-172 130c-5 4-8 10-8 16 0 7 3 13 8 17l172 129c4 3 9 4 14 2 4-3 7-7 7-12v-68c187 0 222-131 228-200 1-6-3-12-8-14-6-2-12 0-16 4z" horiz-adv-x="1022" />

<glyph glyph-name="user-tie" unicode="&#xe805;" d="M620 241c69 48 117 126 117 218l0 130c0 144-117 261-260 261-143 0-260-117-260-261l0-130c0-92 47-170 117-218-187-8-334-161-334-348l0-43 303 0 96 157c8 13 21 17 34 17l87 0c13 0 26-9 35-17l95-157 303 0 0 43c0 187-147 340-333 348z m-61-104c-9-17-22-26-39-26l-87 0c-17 0-30 9-39 26l-43 87c0 4-4 9-4 9 39-22 82-35 130-35 47 0 91 13 130 35 0-5 0-9-5-9l-43-87z" horiz-adv-x="953" />

<glyph glyph-name="user" unicode="&#xe806;" d="M460 310c140 0 254 112 254 249v42c0 137-114 249-254 249s-254-112-254-249v-42c0-137 114-249 254-249z m461-325c0 95-64 179-154 205-197 55-416 55-613 0-91-26-154-110-154-205v-135h921v135z" horiz-adv-x="921" />

<glyph glyph-name="member-company" unicode="&#xe807;" d="M801-150c24 0 43 19 43 42l0 426c-21-6-42-9-64-9-37 0-73 9-106 25-67-33-146-33-213 0-67-33-146-33-213 0-33-16-69-25-106-25-22 0-43 3-64 9l0-426c0-23 19-42 43-42l255 0 0 209 170 0 0-209 255 0z m-654 547c39 0 77 16 104 43 28-27 66-43 105-43 40 0 77 16 105 43 28-27 65-43 105-43 39 0 77 16 105 43 27-27 65-43 104-43 87 0 147 68 147 165 0 8-3 16-7 23l-168 247c-8 11-21 18-35 18l-502 0c-14 0-28-7-35-18l-168-247c-5-7-7-15-7-23 0-97 60-165 147-165z" horiz-adv-x="922" />

<glyph glyph-name="bubble" unicode="&#xe808;" d="M534 850c-294 0-534-199-534-443 0-245 240-444 534-444 45 0 89 5 134 14l319-127-32 284c73 78 113 174 113 273 0 244-240 443-534 443z m344-668l-16-15 20-180-207 83-14-3c-42-10-85-15-127-15-245 0-445 159-445 355 0 195 200 354 445 354 245 0 445-159 445-354 0-82-36-162-101-225z" horiz-adv-x="1068" />

<glyph glyph-name="phone" unicode="&#xe809;" d="M841-150c-464 0-841 377-841 841 0 6 2 12 7 16l136 136c9 9 23 9 32 0l227-227c9-9 9-23 0-32l-120-120 332-332 120 120c9 9 23 9 32 0l227-227c9-9 9-23 0-32l-136-136c-4-5-10-7-16-7z" horiz-adv-x="1000" />

<glyph glyph-name="check" unicode="&#xe80a;" d="M500 850c-276 0-500-224-500-500 0-276 224-500 500-500 276 0 500 224 500 500 0 276-224 500-500 500z m-62-713l-214 213 89 88 125-125 250 250 88-88-338-338z" horiz-adv-x="1000" />

<glyph glyph-name="kebap" unicode="&#xe80b;" d="M379 187c5-31 32-54 64-54l36 0c33 0 61 24 65 57l5 40-38 0c-12 0-22 10-22 22 0 12 10 22 22 22l43 0 20 155c0 3 0 5 0 8 0 36-29 65-65 65l-96 0c-3 0-5 0-8 0-36-5-61-37-57-73l1-3 140 0c12 0 22-10 22-22 0-12-10-21-22-21l-135 0 19-153 94 0c12 0 22-9 22-21 0-12-10-22-22-22l-88 0z m56-166l0 68c-51 4-93 44-100 95l-30 240c-7 59 35 113 95 121 4 0 9 1 13 1l22 0 0 84-65 0c-12 0-21 10-21 22 0 12 9 21 21 21l174 0c12 0 22-9 22-21 0-12-10-22-22-22l-66 0 0-84 31 0c60 0 109-49 109-109 0-4-1-9-1-13l-30-240c-7-54-53-95-108-95l-1 0 0-68 66 0c12 0 22-10 22-22 0-12-10-21-22-21l-174 0c-12 0-21 9-21 21 0 12 9 22 21 22l65 0z m-11 275c-12 0-22 9-22 21 0 12 10 22 22 22l65 0c12 0 22-10 22-22 0-12-10-21-22-21l-65 0z" horiz-adv-x="1000" />

<glyph glyph-name="market" unicode="&#xe80c;" d="M239 334l0-332 218 0 0 152 87 0 0-152 217 0 0 332c36 12 65 45 65 103l0 6-139 255-374 0-139-255 0-6c0-58 29-91 65-103z m348-288l0 152-174 0 0-152-130 0 0 283c27 3 50 13 65 30 18-19 46-31 78-31 31 0 57 12 74 30 17-18 43-30 74-30 32 0 60 12 78 31 15-17 38-27 65-30l0-283-130 0z m-248 608l322 0 122-222c-2-38-22-60-55-60-27 0-54 13-54 43l-44 0c0-28-28-43-56-43-24 0-52 11-52 43l-44 0c0-32-28-43-52-43-28 0-56 15-56 43l-44 0c0-30-27-43-54-43-33 0-53 22-54 60l121 222z" horiz-adv-x="1000" />

<glyph glyph-name="nut" unicode="&#xe80d;" d="M796 225c11 136-46 242-174 322-21-27-49-46-83-56 35-40 60-103 38-165l-6-10c-34-34-89-30-164 4-9-44-22-78-38-104 118-131 232-169 349-117-84 14-143 39-179 78l38 34c31-35 95-58 192-68-9 65-47 122-116 172l29 41c54-39 92-82 114-131z m7-136c-158-108-317-76-469 91-12-7-26-11-41-12-11 0-20 6-24 16-1 2-13 28-17 38-40 97-33 192 51 297-30 25-68 28-116 8-13-5-28 1-33 14-5 12 1 27 14 32 66 27 123 22 169-17 84 83 184 114 300 91 14-3 23-17 19-32-3-8-6-16-9-24 177-110 238-272 180-478-2-5-5-10-10-13-4-3-8-7-13-10l0-1c0 0-1 0-1 0z m-439 273c3 16 21 26 36 18 68-37 112-45 132-31 11 37 2 68-23 97-10 11-21 21-33 29l0 46c64 0 99 34 121 81-98 11-181-26-251-111-76-91-81-167-47-250 1-4 4-11 8-18 23 13 43 58 57 139z" horiz-adv-x="1000" />

<glyph glyph-name="patisserie" unicode="&#xe80e;" d="M449 546c-39 41-53 91-42 149 2 11 13 18 24 16 11-2 19-13 17-24-9-47 2-85 35-117 9 3 18 4 28 4 46 0 82-36 83-81 57-28 97-85 103-151 13-7 21-21 21-36l0-21c0-23-18-42-41-42l-10 0-41-179c-7-28-32-48-61-48l-108 0c-29 0-54 20-60 48l-42 179-9 0c-23 0-42 19-42 42l0 21c0 15 9 29 22 36 5 66 46 123 103 151 0 20 7 39 20 53z m135-94c-14-26-42-43-73-43-31 0-58 17-72 43-38-22-65-60-71-105l287 0c-7 45-34 83-71 105z m-186-209l39-170c2-9 11-16 20-16l108 0c10 0 18 7 20 16l40 170-227 0z m-52 63l0-21 331 0 0 21-331 0z m165 144c23 0 42 19 42 42 0 23-19 41-42 41-23 0-41-18-41-41 0-23 18-42 41-42z" horiz-adv-x="1000" />

<glyph glyph-name="restaurant" unicode="&#xe80f;" d="M522 567c0-13-9-21-22-21-13 0-22 8-22 21l0 109c0 13 9 22 22 22 13 0 22-9 22-22l0-109z m-131-43c0-13-8-22-21-22-13 0-22 9-22 22l0 109c0 13 9 21 22 21 13 0 21-8 21-21l0-109z m261 0c0-13-8-22-22-22-13 0-21 9-21 22l0 109c0 13 8 21 21 21 14 0 22-8 22-21l0-109z m174-391c13 0 22-9 22-22 0-61-48-109-109-109l-478 0c-61 0-109 48-109 109 0 13 9 22 22 22l26 0c17 128 117 230 241 254-4 9-6 17-6 28 0 37 28 65 65 65 37 0 65-28 65-65 0-11-2-19-6-28 124-24 224-126 241-254l26 0z m-348 282c0-13 9-21 22-21 13 0 22 8 22 21 0 13-9 22-22 22-13 0-22-9-22-22z m22-65c-128 0-237-93-256-217l513 0c-20 124-129 217-257 217z m239-304c28 0 52 17 63 43l-602 0c9-26 33-43 61-43l478 0z m-311 248c11 4 22 0 26-11 5-11-2-24-13-29-39-15-76-45-95-84-5-7-11-11-20-11-4 0-9 0-11 2-11 4-15 17-8 28 26 48 69 85 121 105z" horiz-adv-x="1000" />

<glyph glyph-name="seafood" unicode="&#xe810;" d="M604 453c43-13 80-33 111-60 7-6 17-7 25-2 37 21 66 33 89 33 13 0 25-6 27-21 2-9-1-15-6-23-2-4-17-23-21-29-26-38-30-71-2-110 11-17 19-29 23-37 3-8 5-14 4-21-3-16-18-22-31-19-14 4-37 23-80 62-8 7-19 8-27 2-12-8-24-15-36-22 34-66 42-97 12-110-20-9-60 9-147 58-22-4-44-6-65-6-78 0-165 33-261 100-30 20-37 61-17 91 2 3 5 6 7 9 53 53 111 89 174 107 90 45 144 77 147 84 8 16 27 21 41 8 5-5 9-12 13-23 6-15 13-39 20-71z m-47 10c-4 14-7 26-10 35-11-9-26-18-46-30 20 0 38-2 56-5z m85-277c-12-6-25-11-37-15 18-10 33-17 45-23 4-2 8-3 11-5-4 11-10 26-19 43z m-284 33c44-18 85-28 122-28 69 0 139 24 211 73 24 16 56 15 78-3-11 37-3 72 18 106-7-4-16-8-25-14-24-14-55-11-76 8-49 43-117 64-206 64-41 0-80-7-118-23 37-70 36-132-4-183z m-40 19c34 39 37 85 5 145-28-17-56-39-83-66-1-1-2-2-2-3-7-10-5-23 5-30 26-18 51-33 75-46z m99 112c-12-2-23 6-25 18-2 11 6 23 18 25 66 10 121 10 163-1 42-11 74-28 97-50 8-9 8-22 0-31-9-8-23-8-31 0-16 16-42 30-77 39-36 10-84 10-145 0z m-113-43c-12 0-21 9-21 21 0 12 9 22 21 22 12 0 22-10 22-22 0-12-10-21-22-21z" horiz-adv-x="1000" />

<glyph glyph-name="shopping" unicode="&#xe811;" d="M740 524l-106 0 0 43c0 72-59 131-131 131-72 0-130-59-130-131l0-43-106 0-71-522 615 0-71 522z m-324 43c0 48 39 87 87 87 48 0 87-39 87-87l0-43-174 0 0 43z m-111-87l68 0 0-86 43 0 0 86 174 0 0-86 44 0 0 86 68 0 59-434-515 0 59 434z" horiz-adv-x="1000" />

<glyph glyph-name="world-kitchen" unicode="&#xe812;" d="M800 284c-21 11-44 18-68 21-1 0-1 1-1 1-8 10 0 17-4 24-5 8-25 10-36 23-10 11-3 14-7 26-3 8-25 19-38 18-17-2-30-10-29-25 1-13 52-7 53-36 0-11-22-19-25-26-2-4-4-10-6-15-4-1-9-3-13-5-5 1-11 2-13 1-3-1-4-5-5-9-7-4-14-9-21-14-8-2-16-5-20-10-1-2-3-5-3-9-37-35-60-82-64-135-17-4-37-3-49 7-14 10-2 28-11 39-5 6-10 6-20 19-10 13 2 30-5 42-9 15-71 32-81 55-8 17-9 59-3 77 3 12 25 17 33 24 7 6 14 21 29 23 13 2 28-12 34-16 7-4 19 2 29-1 11-3 48-36 65-36 18 0 22 23 20 35-2 12-23 11-30 16-8 6-18 26-31 26-13 0-34-14-51-16-16-2-26 10-27 25 0 16 16 24 28 28 14 5 74 10 109 35 9 7 9 35 33 51 23 15 57 0 62 16-42 28-91 43-145 43-18 0-37-2-54-5 13 1 26 1 33-4 10-7 14-34 2-39-12-6-23-2-29-6-8-4-6-19-27-24-11-2-35 12-43 12-8 0-28-8-32-12-4-3-18-6-23 0-2 2 7 16 14 26-66-49-108-127-108-215 0-147 120-267 267-267 4 0 9 0 13 0 2-16 6-32 12-47-8-1-16-1-25-1-174 0-315 141-315 315 0 174 141 315 315 315 174 0 315-141 315-315 0-18-1-37-4-55z m-395 309c-22-7-42-17-62-30 11 1 21-5 32-1 11 4 18 22 30 31z m475-515c7 0 11-4 11-11 0-33-25-58-57-58l-254 0c-33 0-58 25-58 58 0 7 4 11 11 11l14 0c9 68 63 123 128 135-2 5-3 10-3 15 0 20 15 35 35 35 19 0 34-15 34-35 0-5-1-10-3-15 66-12 119-67 128-135l14 0z m-185 150c0-6 5-11 12-11 7 0 11 5 11 11 0 7-4 12-11 12-7 0-12-5-12-12z m12-34c-69 0-126-50-137-116l273 0c-11 66-68 116-136 116z m127-162c15 0 27 9 33 23l-320 0c5-14 18-23 33-23l254 0z m-166 132c6 2 12 0 14-6 3-6-1-13-7-15-20-8-40-24-50-45-3-4-6-6-11-6-2 0-4 0-6 1-5 3-8 10-4 15 14 26 37 45 64 56z" horiz-adv-x="1000" />

<glyph glyph-name="asian-cuisine" unicode="&#xe813;" d="M405 190l-253 8 0 21 353 0 304 87 21-44-179-43 177 0 0-45-314 12-339-83-11 17 241 70z m-114 399l109 0c36 0 65-29 65-65l0-109c0-36-29-65-65-65l-109 0c-36 0-65 29-65 65l0 109c0 36 29 65 65 65z m0-43c-12 0-21-10-21-22l0-109c0-12 9-21 21-21l109 0c12 0 22 9 22 21l0 109c0 12-10 22-22 22l-109 0z m305 43l108 0c36 0 66-29 66-65l0-109c0-36-30-65-66-65l-108 0c-36 0-65 29-65 65l0 109c0 36 29 65 65 65z m0-43c-12 0-22-10-22-22l0-109c0-12 10-21 22-21l108 0c12 0 22 9 22 21l0 109c0 12-10 22-22 22l-108 0z m-283-66c-12 0-22 10-22 22 0 12 10 22 22 22 12 0 22-10 22-22 0-12-10-22-22-22z m54-65c-18 0-32 15-32 33 0 18 14 32 32 32 18 0 33-14 33-32 0-18-15-33-33-33z m250 65c-12 0-21 10-21 22 0 12 9 22 21 22 12 0 22-10 22-22 0-12-10-22-22-22z m55-65c-18 0-33 15-33 33 0 18 15 32 33 32 18 0 32-14 32-32 0-18-14-33-32-33z" horiz-adv-x="1000" />

<glyph glyph-name="bakery" unicode="&#xe814;" d="M606 320c-10 1-19 3-29 4 2-50-15-96-44-128-16-18-34-30-50-29-30 2-33 30-20 58 16 36 11 69-17 101-15-1-30-3-45-5 8-58-9-114-41-156-15-20-31-34-45-37-16-4-31 6-33 23-1 9 2 19 7 31 16 36 11 68-17 101-48-24-76-54-76-85 0-68 135-131 304-131 170 0 304 63 304 131 0 29-25 58-67 80-12-17-31-37-57-59-15-13-31-26-42-33-3-2-5-3-7-4-1-1-3-2-4-2-5-2-8-3-15-2-15 9-15 9-16 24 2 7 2 7 3 10 2 1 3 3 4 4 1 1 2 2 3 3 17 40 16 73 0 101z m51-11c5-16 6-32 4-49 13 12 24 23 32 33 1 1 2 2 3 4-12 4-25 8-39 12z m84 16l3 1c0-1 0-2 1-3 63-31 103-75 103-125 0-101-157-174-348-174-191 0-348 73-348 174 0 100 157 174 348 174 93 0 179-18 241-47z m-208 3c-11 0-22 0-33 0-1 0-2 0-2 0 15-27 21-55 16-85 14 24 21 53 19 85z m-219-28c19-26 28-54 28-82 14 28 20 61 17 95-16-4-31-8-45-13z m71 151c6 5 8 7 8 12 0 5-2 7-8 12-6 6-15 14-15 30 0 15 9 23 15 29 6 5 8 8 8 12 0 5-2 7-8 13-6 5-15 13-15 29 0 16 9 24 15 30 6 5 8 7 8 12l0 23 23 0 0-23c0-16-9-24-15-30-6-5-8-7-8-12 0-5 2-7 8-12 6-6 15-14 15-30 0-15-9-23-15-29-6-5-8-8-8-12 0-5 2-7 8-13 6-5 15-14 15-29 0-16-9-24-15-30-6-5-8-7-8-12l-23 0c0 16 9 24 15 30z m128 106c5 5 7 8 7 12 0 5-2 7-7 13-7 6-16 14-16 29 0 16 9 24 16 30 5 5 7 7 7 12l0 23 24 0 0-23c0-16-9-24-16-30-6-5-8-7-8-12 0-5 2-7 8-12 7-6 16-14 16-30 0-15-9-23-16-29-6-5-8-8-8-12 0-4 1-5 7-9 6-5 17-12 17-28l-24 0c0 4-1 5-6 9-6 4-17 11-17 28 0 15 9 23 16 29z m104-69c6 5 8 7 8 12 0 5-2 7-8 12-7 6-16 14-16 30 0 15 9 23 16 29 6 5 8 8 8 12l0 24 23 0 0-24c0-15-9-23-16-29-5-5-7-7-7-12 0-5 2-7 7-13 7-5 16-13 16-29 0-16-9-24-16-30-5-5-7-7-7-12 0-4 1-5 6-9 7-4 17-11 17-28l-23 0c0 4-1 5-7 9-6 5-17 12-17 28 0 16 9 24 16 30z" horiz-adv-x="1000" />

<glyph glyph-name="buffet" unicode="&#xe815;" d="M196 328l0-282 608 0 0 282-608 0z m543 152l0-108 65 0c24 0 44-20 44-44l0-282c0-24-20-44-44-44l-608 0c-24 0-44 20-44 44l0 282c0 24 20 44 44 44l500 0 0 108-87 0 0 109 217 0 0-109-87 0z m-89-217c17 0 32 22 39 38l-376 0c5-16 20-38 38-38l299 0z m-77 217c9 0 14-5 14-13 0-38-30-68-68-68l-299 0c-38 0-68 30-68 68 0 8 6 13 14 13l16 0c11 81 73 145 151 159-3 6-4 11-4 18 0 23 18 41 41 41 23 0 40-18 40-41 0-7-1-12-4-18 78-14 140-78 151-159l16 0z m-217 177c0-8 5-13 14-13 8 0 13 5 13 13 0 8-5 14-13 14-9 0-14-6-14-14z m14-41c-81 0-148-58-161-136l321 0c-12 78-80 136-160 136z m149-190c18 0 33 11 39 27l-376 0c6-16 20-27 38-27l299 0z m-194 155c7 3 13 0 16-7 3-7-1-15-8-17-25-10-48-29-60-53-3-4-7-7-12-7-3 0-6 0-7 1-7 3-9 11-5 18 16 30 43 53 76 65z m327-35l0-22 131 0 0 22-131 0z" horiz-adv-x="1000" />

<glyph glyph-name="cafe" unicode="&#xe816;" d="M413 307l0 0c12 0 22-10 22-22l0-87c0-12-10-22-22-22l-43 0c-12 0-22 10-22 22l0 87c0 12 10 22 22 22l0 65-44 0 0-152c0-36 29-66 65-66l196 0c36 0 65 30 65 66l0 152-239 0 0-65z m283-87c0-60-49-109-109-109l239 0c24 0 44-20 44-44l0-21c0-24-20-44-44-44l-652 0c-24 0-44 20-44 44l0 21c0 24 20 44 44 44l217 0c-60 0-108 49-108 109l0 195 413 0 108 0 0-87c0-60-48-108-108-108z m0 152l0-109c36 0 65 29 65 65l0 44-65 0z m-522-305l0-21 652 0 0 21-652 0z m202 405c6 6 8 8 8 13 0 4-2 7-8 12-6 6-15 14-15 29 0 16 9 24 15 30 6 5 8 7 8 12 0 5-2 7-8 12-6 6-15 14-15 30 0 15 9 23 15 29 6 6 8 8 8 12l0 24 23 0 0-24c0-15-9-23-15-29-6-5-8-7-8-12 0-5 2-7 8-12 6-6 15-14 15-30 0-16-9-24-15-29-6-6-8-8-8-13 0-4 2-7 8-12 6-6 15-14 15-29 0-16-9-24-15-30-6-5-8-7-8-12l-23 0c0 15 9 23 15 29z m128 107c6 5 8 7 8 12 0 5-2 7-8 12-7 6-16 14-16 30 0 15 9 24 16 29 6 6 8 8 8 13l0 23 23 0 0-23c0-16-9-24-16-30-5-5-7-7-7-12 0-5 2-7 7-12 7-6 16-14 16-30 0-15-9-24-16-29-5-6-7-8-7-13 0-4 1-5 6-9 6-4 17-11 17-28l-23 0c0 4-1 5-7 9-6 5-17 12-17 28 0 16 9 24 16 30z m104-70c6 6 8 8 8 13 0 5-2 7-8 12-6 6-15 14-15 29 0 16 9 24 15 30 6 5 8 7 8 12l0 23 23 0 0-23c0-15-9-23-15-29-6-6-8-8-8-13 0-4 2-7 8-12 6-6 15-14 15-29 0-16-9-24-15-30-6-5-8-7-8-12 0-4 1-5 7-9 6-4 16-12 16-28l-23 0c0 4-1 5-7 9-6 4-16 12-16 28 0 16 9 24 15 29z" horiz-adv-x="1000" />

<glyph glyph-name="catering" unicode="&#xe817;" d="M500 161l31 14 0 73c0 19 16 35 36 35l14 0c13 0 25-6 31-18l39-68c13 16 33 25 55 25l89 0 0-35-89 0c-20 0-36-16-36-36l0-131-35 0 0 9-142-12c-32-3-63 9-86 32l-166 171c-13 13-13 34 0 47 13 13 33 14 47 3l39-31-1 15c0 15 11 28 27 30l-112 0c-50 0-89 39-89 89 0 11 7 18 18 18l21 0c15 105 97 189 198 208-3 8-5 15-5 24 0 30 23 53 54 53 30 0 53-23 53-53 0-9-2-16-5-24 101-19 184-103 198-208l21 0c11 0 18-7 18-18 0-50-39-89-89-89l-170 0c12-3 22-14 23-27l13-96z m-34-14l-8 64-7-68-1 0 2-2 14 6z m-45 55l5 55c1 13 11 24 23 27l-90 0c12-1 23-8 29-19l33-63z m-57 8l21-16-22 41 1-25z m271-145l0 86c0 1 0 2 0 3l-54 94-14 0 0-97-120-51-170 133 156-159c15-16 36-24 57-22l145 13z m43 477c-10 0-17 7-17 18 0 11 7 18 17 18l90 0c10 0 17-7 17-18 0-11-7-18-17-18l-90 0z m54-71c-11 0-18 7-18 18 0 11 7 18 18 18l89 0c11 0 18-7 18-18 0-11-7-18-18-18l-89 0z m-161 143c-10 0-17 7-17 18 0 10 7 17 17 17l90 0c10 0 17-7 17-17 0-11-7-18-17-18l-90 0z m-151 9c0-11 7-18 18-18 10 0 17 7 17 18 0 10-7 17-17 17-11 0-18-7-18-17z m18-54c-106 0-195-77-211-178l421 0c-16 101-105 178-210 178z m196-250c23 0 43 15 52 36l-495 0c8-21 27-36 50-36l393 0z m-255 204c9 3 18 0 21-9 4-9-2-20-11-23-32-13-62-38-78-70-4-5-9-9-16-9-4 0-7 0-9 2-9 3-12 14-7 23 21 39 57 70 100 86z" horiz-adv-x="1000" />

<glyph glyph-name="delicatessen" unicode="&#xe818;" d="M261 152l0-19 500 0 0 261-500 0 0-194c6 6 13 9 22 9 18 0 32-15 32-33 0-18-14-32-32-32-9 0-16 3-22 8z m-44 285l478 151 109-151 0-348-587 0 0 348z m103 0l435 0-78 94-357-94z m147-185c-36 0-65 29-65 65 0 36 29 66 65 66 36 0 66-30 66-66 0-36-30-65-66-65z m0 22c24 0 44 19 44 43 0 24-20 44-44 44-24 0-43-20-43-44 0-24 19-43 43-43z m131-130c-24 0-44 19-44 43 0 24 20 43 44 43 24 0 43-19 43-43 0-24-19-43-43-43z m0 21c12 0 22 10 22 22 0 12-10 22-22 22-12 0-22-10-22-22 0-12 10-22 22-22z m98 109c-18 0-33 15-33 33 0 18 15 32 33 32 18 0 32-14 32-32 0-18-14-33-32-33z m0 22c6 0 11 5 11 11 0 6-5 10-11 10-6 0-11-4-11-10 0-6 5-11 11-11z m-413-131c6 0 11 5 11 11 0 6-5 11-11 11-6 0-11-5-11-11 0-6 5-11 11-11z" horiz-adv-x="1000" />

<glyph glyph-name="fastfood" unicode="&#xe819;" d="M660 485l113 0c21 0 39-17 39-38 0-22-18-39-39-39l-29 0c37 0 68-30 68-68 0-20-10-39-24-51 14-6 24-20 24-36 0-21-18-38-39-38l-560 0c-22 0-39 17-39 38 0 16 10 30 24 36-15 12-24 31-24 51 0 38 30 68 68 68l-29 0c-22 0-39 17-39 39 0 21 17 38 39 38l157 0 230-98 60 98z m-254 191l174 0c106 0 193-65 193-171l-560 0c0 106 86 171 193 171z m174-39l-174 0c-72 0-133-27-150-94l473 0c-17 67-77 94-149 94z m0-55c-11 0-20 9-20 19 0 11 9 20 20 20 10 0 19-9 19-20 0-10-9-19-19-19z m58-19c-11 0-20 8-20 19 0 11 9 19 20 19 10 0 19-8 19-19 0-11-9-19-19-19z m-425-368l560 0c0-106-87-171-193-171l-174 0c-107 0-193 65-193 171z m193-132l174 0c72 0 132 27 149 94l-473 0c17-67 78-94 150-94z m-164 306c-16 0-29-13-29-29 0-16 13-29 29-29l502 0c16 0 29 13 29 29 0 16-13 29-29 29l-502 0z" horiz-adv-x="1000" />

<glyph glyph-name="fuel-station" unicode="&#xe81a;" d="M826 502l-22 0c-3 38-14 67-49 103-9 8-23 8-31 0-9-9-9-23 0-31 25-26 34-44 36-72l-21 0c-12 0-22-10-22-22l0-108c0-12 10-22 22-22l44 0 0-120c0-29-25-54-55-54-30 0-54 25-54 54l0 77 0 282c0 36-29 65-65 65l-348 0c-36 0-65-29-65-65l0-500-22 0c-12 0-22-10-22-22 0-12 10-21 22-21l522 0c12 0 21 9 21 21 0 12-9 22-21 22l-22 0 0 60c16-10 34-16 54-16 54 0 98 44 98 97l0 120c12 0 22 10 22 22l0 108c0 12-10 22-22 22z m-587-413l0 500c0 12 10 22 22 22l348 0c12 0 21-10 21-22l0-282 0-77 0-141-391 0z m522 370l43 0 0-65-43 0 0 65z m-196 108c12 0 22-9 22-21l0-174c0-12-10-22-22-22l-261 0c-12 0-21 10-21 22l0 174c0 12 9 21 21 21l261 0z m-21-173l0 130-218 0 0-130 218 0z" horiz-adv-x="1000" />

<glyph glyph-name="home-cooking" unicode="&#xe81b;" d="M769 314l29 0c11 0 21-10 21-21 0-12-10-21-21-21l-22 0c1-7 1-14 1-21l0-145c0-57-46-104-104-104l-332 0c-57 0-104 47-104 104l0 145c0 7 1 14 1 21l-22 0c-11 0-20 9-20 21 0 11 9 21 20 21l30 0c27 96 115 166 220 166l83 0c104 0 192-70 220-166z m-44 0c-26 72-95 124-176 124l-83 0c-82 0-151-52-177-124l436 0z m9-42l-454 0c-1-7-1-14-1-21l0-145c0-34 28-62 62-62l332 0c35 0 63 28 63 62l0 145c0 7-1 14-2 21z m-279 218c-11 0-20 10-20 21 0 11 9 21 20 21l104 0c12 0 21-10 21-21 0-11-9-21-21-21l-104 0z m-41 166c0 12 9 21 21 21 11 0 20-9 20-21l0-83c0-11-9-20-20-20-12 0-21 9-21 20l0 83z m83 21c0 12 9 21 21 21 11 0 20-9 20-21l0-83c0-11-9-21-20-21-12 0-21 10-21 21l0 83z m83-21c0 12 9 21 21 21 11 0 20-9 20-21l0-83c0-11-9-20-20-20-12 0-21 9-21 20l0 83z" horiz-adv-x="1000" />

<glyph glyph-name="search" unicode="&#xe81c;" d="M782 153c52 70 84 158 84 252 0 233-189 422-421 422s-422-189-422-422 189-421 422-421c94 0 182 32 252 85l178-179c12-11 27-17 42-17 16 0 31 6 43 17 23 24 23 61 0 85l-178 178z m-337-50c-167 0-303 136-303 302s136 303 303 303 302-136 302-303-136-302-302-302z" horiz-adv-x="1000" />

<glyph glyph-name="close" unicode="&#xe81d;" d="M640 350l331 331c39 39 39 102 0 140-38 39-101 39-140 0l-331-331-331 331c-39 39-102 39-140 0-39-38-39-101 0-140l331-331-331-331c-39-39-39-102 0-140 38-39 101-39 140 0l331 331 331-331c39-39 102-39 140 0 39 38 39 101 0 140l-331 331z" horiz-adv-x="1000" />
</font>
</defs>
</svg>
